<?xml version="1.0" encoding="UTF-8" standalone="no"?>
<!DOCTYPE svg PUBLIC "-//W3C//DTD SVG 1.1//EN" "http://www.w3.org/Graphics/SVG/1.1/DTD/svg11.dtd">
<svg xmlns="http://www.w3.org/2000/svg">
<metadata/>
<defs>
<font id="asapbold" horiz-adv-x="655">
<font-face units-per-em="2048" ascent="1638" descent="-410"/>
<missing-glyph horiz-adv-x="491"/>
<glyph horiz-adv-x="2048"/>
<glyph horiz-adv-x="2048"/>
<glyph unicode="" horiz-adv-x="681"/>
<glyph unicode=" " horiz-adv-x="491"/>
<glyph unicode="	" horiz-adv-x="491"/>
<glyph unicode=" " horiz-adv-x="491"/>
<glyph unicode="!" horiz-adv-x="602" d="M152 61v189q0 66 122 65h66q123 0 123 -65v-189q0 -66 -123 -65h-66q-122 -1 -122 65zM193 520v852q0 66 122 66h88q123 0 123 -58q0 -14 -102 -860q-4 -35 -24.5 -50t-80.5 -15h-22q-59 0 -81.5 15t-22.5 50z"/>
<glyph unicode="&quot;" horiz-adv-x="653" d="M39 1362v10q0 66 123 66h20q123 0 123 -66l-45 -360q-8 -61 -70 -62h-36q-61 0 -70 62zM348 1362v10q0 66 123 66h21q123 0 122 -66l-45 -360q-8 -61 -69 -62h-37q-61 0 -70 62z"/>
<glyph unicode="#" horiz-adv-x="1093" d="M16 477v21q0 102 62 102h129l43 225h-98q-61 0 -62 103v20q0 102 62 103h139l53 290q12 63 115 64h26q92 0 93 -45q0 -12 -3 -19l-53 -290h193l53 290q12 63 115 64h26q92 0 92 -45q0 -12 -2 -19l-53 -290h68q61 0 61 -103v-20q0 -102 -61 -103h-109l-43 -225h86 q61 0 62 -102v-21q0 -102 -62 -102h-127l-59 -316q-12 -63 -113 -63h-26q-94 0 -95 47q0 10 2 16l60 316h-193l-59 -316q-12 -63 -113 -63h-26q-95 0 -95 47q0 10 2 16l60 316h-88q-61 0 -62 102zM438 600h193l43 225h-193z"/>
<glyph unicode="$" horiz-adv-x="1015" d="M39 164q0 47 47 114.5t80 67.5q12 0 55 -22q125 -72 246 -72h10v338q-78 29 -115.5 44t-104.5 55t-100.5 80t-61 108.5t-27.5 152.5q0 188 116.5 292.5t292.5 123.5v65q0 61 55 62q61 0 62 -62v-63q141 -6 234.5 -49t93.5 -90t-39 -114t-74 -67q-2 0 -69.5 25t-145.5 27 v-312q78 -35 110.5 -49t98 -56t96.5 -80t57.5 -102.5t26.5 -142.5q0 -211 -110.5 -321.5t-278.5 -128.5v-92q0 -61 -55 -62q-61 0 -62 62v90q-197 6 -317.5 63.5t-120.5 114.5zM371 1060.5q0 -79.5 106 -138.5v245q-106 -27 -106 -106.5zM594 274q88 37 88 123t-88 138v-261 z"/>
<glyph unicode="%" horiz-adv-x="1566" d="M92 1106q0 344 307.5 344t307.5 -344t-307.5 -344t-307.5 344zM301 1102q0 -172 97.5 -172t97.5 172t-97.5 172t-97.5 -172zM313 23q0 10 11 30l731 1327q33 57 90 58h90q43 0 43 -29q0 -8 -10 -29l-731 -1327q-33 -57 -91 -57h-90q-43 0 -43 27zM885 328q0 344 307 344 t307 -344t-307 -344t-307 344zM1094 324q0 -172 97 -172t97 172t-97 172t-97 -172z"/>
<glyph unicode="&amp;" horiz-adv-x="1277" d="M47 418q0 276 238 366v9q-88 37 -139.5 115.5t-51.5 183.5q0 164 114 261t322.5 97t208.5 -86q0 -72 -22.5 -120t-48.5 -48l-37 8q-35 6 -64 6q-82 0 -124 -45t-42 -122.5t56.5 -124t154.5 -46.5h193l26 195q10 66 111 66h64q102 0 102 -66v-195h100q61 0 62 -102v-35 q0 -102 -62 -102h-100v-322q0 -88 74 -88l55 8q27 0 45 -60t18 -87q0 -100 -196 -100q-147 0 -223 82q-164 -82 -371 -82t-335 116.5t-128 317.5zM354 422q0 -94 55.5 -146.5t162 -52.5t233.5 56v354h-211q-240 0 -240 -211z"/>
<glyph unicode="'" horiz-adv-x="374" d="M61 1362v10q0 66 123 66h21q123 0 123 -66l-45 -360q-8 -61 -70 -62h-37q-61 0 -70 62z"/>
<glyph unicode="(" horiz-adv-x="616" d="M104.5 588.5q-0.5 541.5 307.5 982.5q25 33 56.5 33t73.5 -31t42 -58.5t-11 -46.5q-123 -229 -176 -438t-53 -442.5t53.5 -441t175.5 -437.5q10 -18 10.5 -46t-41.5 -58.5t-73.5 -30.5t-56.5 33q-307 440 -307.5 981.5z"/>
<glyph unicode=")" horiz-adv-x="616" d="M27 -337q0 28 10 46q123 229 176 437t53 441.5t-53 442.5t-176 438q-10 18 -10 46t42 59t73.5 31t56.5 -33q307 -440 307 -982t-307 -982q-25 -33 -56.5 -33t-73.5 30.5t-42 58.5z"/>
<glyph unicode="*" horiz-adv-x="763" d="M68 1200q0 18 6 33q12 43 51 43q8 0 29 -4l157 -51v168q0 61 61.5 61t61.5 -61v-168l154 51q20 4 34.5 4t33 -20.5t18.5 -54.5t-45 -48l-156 -49l117 -162q16 -18 16 -38.5t-23.5 -41t-46 -20.5t-44.5 30l-121 170l-121 -170q-23 -31 -46.5 -30.5t-47 21t-23.5 40 t19 39.5l114 162l-153 49q-45 14 -45 47z"/>
<glyph unicode="+" horiz-adv-x="1146" d="M84 475v14q0 102 61 103h310v315q0 61 102 62h29q102 0 102 -62v-315h313q61 0 62 -103v-14q0 -102 -62 -102h-313v-312q0 -61 -102 -61h-29q-102 0 -102 61v312h-310q-61 0 -61 102z"/>
<glyph unicode="," horiz-adv-x="405" d="M-18 -211.5q0 21.5 22 72.5q68 158 68 364q0 90 123 90h38q123 0 123 -90q0 -109 -52 -224.5t-118.5 -186t-105.5 -70.5t-68.5 11.5t-29.5 33z"/>
<glyph unicode="-" d="M57 537v14q0 102 62 102h418q61 0 61 -102v-14q0 -102 -61 -103h-418q-61 0 -62 103z"/>
<glyph unicode="." horiz-adv-x="405" d="M45 61v189q0 66 123 65h65q123 0 123 -65v-189q0 -66 -123 -65h-65q-123 -1 -123 65z"/>
<glyph unicode="/" horiz-adv-x="757" d="M-61 -129q0 4 8 29l596 1476q25 62 125 62h49q86 0 86 -33q0 -10 -6 -29l-596 -1476q-25 -61 -125 -62h-49q-88 0 -88 33z"/>
<glyph unicode="0" horiz-adv-x="1095" d="M61 717q0 344 129 538.5t356.5 194.5t356.5 -194.5t129 -538.5t-129 -538.5t-356.5 -194.5t-356.5 194.5t-129 538.5zM369 716.5q0 -493.5 178 -493.5t178 493.5t-178 493.5t-178 -493.5z"/>
<glyph unicode="1" horiz-adv-x="1095" d="M76 1284q0 53 53 64l510 94q27 0 55.5 -15.5t28.5 -33.5v-1153h219q61 0 62 -103v-35q0 -102 -62 -102h-795q-61 0 -61 102v35q0 102 61 103h273v919l-279 -41q-35 0 -50 56.5t-15 109.5z"/>
<glyph unicode="2" horiz-adv-x="1095" d="M68 165q0 36 6 46l518 635q78 96 78 186t-53.5 133t-124 43t-122 -22.5t-85 -44t-45.5 -21.5q-45 0 -81 49.5t-36 92.5q0 86 125 137t282 51q211 0 329 -110.5t118 -291t-125 -333.5l-385 -475h473q61 0 61 -103v-35q0 -102 -61 -102h-815q-20 0 -38.5 64.5t-18.5 100.5z "/>
<glyph unicode="3" horiz-adv-x="1095" d="M74 152q0 35 33.5 95t66.5 60q12 0 51 -20q125 -63 231.5 -63.5t162 52t55.5 150.5q0 205 -240 205h-57q-61 0 -62 102v37q0 102 62 102h39q98 0 154.5 46.5t56.5 124t-42 121.5t-129 44t-160 -31.5t-77 -31.5q-31 0 -66.5 56t-35.5 99q0 72 115.5 111t295 39t293 -97.5 t113.5 -260.5q0 -104 -51.5 -183.5t-139.5 -115.5v-9q238 -90 238 -366q0 -201 -128 -317.5t-335 -116.5q-152 0 -298 42t-146 126z"/>
<glyph unicode="4" horiz-adv-x="1095" d="M23 465q0 31 4 39l608 895q27 39 125 39h55q123 0 123 -66v-842h78q61 0 61 -102v-35q0 -102 -61 -102h-78v-230q0 -66 -123 -65h-57q-123 0 -123 65v230h-537q-25 0 -50 71.5t-25 102.5zM328 530h307v469l-8 2z"/>
<glyph unicode="5" horiz-adv-x="1095" d="M78 131q0 33 39 97.5t71 64.5q6 0 45 -19q117 -51 231 -51t173 56.5t59 162t-59 163t-197 57.5h-223q-43 0 -59.5 18t-16.5 63l39 609q4 43 23.5 62.5t62.5 19.5h604q61 0 62 -103v-55q0 -82 -62 -82h-413l-21 -293h53q250 0 382.5 -104.5t132.5 -354.5 q0 -125 -46.5 -217t-123.5 -143q-150 -98 -338.5 -98t-303 43t-114.5 104z"/>
<glyph unicode="6" horiz-adv-x="1095" d="M68 518q0 221 73.5 396.5t173 270.5t212 157.5t179 81t87.5 18.5q45 0 73.5 -62.5t28.5 -96.5t-5 -42t-22 -12q-242 -72 -372 -260q-45 -66 -72 -144q94 51 181 51.5t151.5 -22.5t129 -70t105.5 -136t41 -206.5t-42 -210t-113 -145.5q-139 -102 -326 -102 q-188 0 -328 118q-72 59 -113.5 167t-41.5 249zM377 494q0 -271 176 -271q74 0 124 59.5t50 152.5t-49 147.5t-130 54.5t-169 -49q-2 -31 -2 -94z"/>
<glyph unicode="7" horiz-adv-x="1095" d="M78 1296v35q0 102 61 103h811q16 0 39 -68t23 -99.5t-4 -43.5l-539 -1186q-18 -41 -119 -41h-76q-120 0 -120 39q0 14 12 39l508 1120h-535q-61 0 -61 102z"/>
<glyph unicode="8" horiz-adv-x="1095" d="M59 412q0 137 58.5 229t148.5 127q-152 102 -151 295q0 162 116.5 274.5t321.5 112.5t320.5 -103.5t115.5 -238.5t-46 -203.5t-132 -116.5q225 -102 225 -395q0 -154 -108 -274q-55 -61 -151.5 -98t-221.5 -37q-248 0 -372 122t-124 306zM365 430q0 -94 49 -150.5 t135 -56.5t133 57.5t47 122t-18.5 107.5t-59.5 72q-68 49 -174 86q-112 -82 -112 -238zM414 1069q0 -68 43 -108.5t127 -75.5q110 73 110 188q0 61 -41 99t-99 38t-99 -36.5t-41 -104.5z"/>
<glyph unicode="9" horiz-adv-x="1095" d="M59 990q0 118 42 210t112 143q141 104 328 105q188 0 327 -117q72 -61 114 -168.5t42 -249.5q0 -221 -73.5 -396t-173 -270t-212 -157.5t-179.5 -81t-87 -18.5q-45 0 -73.5 62.5t-28.5 96t5 42t21 12.5q242 72 373 260q45 66 72 143q-94 -51 -181.5 -51t-152 22.5 t-129 69.5t-105.5 136t-41 207zM365 996.5q0 -93.5 49 -147.5t130 -54t169 49q2 31 2 94q0 270 -176 270q-74 0 -124 -59t-50 -152.5z"/>
<glyph unicode=":" horiz-adv-x="405" d="M45 61v189q0 66 123 65h65q123 0 123 -65v-189q0 -66 -123 -65h-65q-123 -1 -123 65zM45 821v189q0 66 123 65h65q123 0 123 -65v-189q0 -66 -123 -65h-65q-123 0 -123 65z"/>
<glyph unicode=";" horiz-adv-x="405" d="M-20 -211.5q0 21.5 22 72.5q68 158 68 364q0 90 123 90h38q123 0 123 -90q0 -109 -52 -224.5t-118.5 -186t-105.5 -70.5t-68.5 11.5t-29.5 33zM45 821v189q0 66 123 65h65q123 0 123 -65v-189q0 -66 -123 -65h-65q-123 0 -123 65z"/>
<glyph unicode="&lt;" horiz-adv-x="1146" d="M78 483v39q0 59 57 86l858 367q18 6 31 6q31 0 31 -84v-33q0 -100 -62 -125l-598 -237l600 -238q61 -25 62 -125v-33q0 -86 -31 -86q-14 0 -31 9l-860 368q-57 23 -57 86z"/>
<glyph unicode="=" horiz-adv-x="1146" d="M84 279v14q0 102 61 102h856q61 0 62 -102v-14q0 -102 -62 -103h-856q-61 0 -61 103zM84 649v15q0 102 61 102h856q61 0 62 -102v-15q0 -102 -62 -102h-856q-61 0 -61 102z"/>
<glyph unicode="&gt;" horiz-adv-x="1146" d="M78 106v33q0 100 61 125l600 238l-598 237q-61 25 -61 125v33q0 84 31 84q12 0 30 -6l858 -367q57 -27 58 -86v-39q0 -63 -58 -86l-860 -368q-16 -9 -30 -9q-31 0 -31 86z"/>
<glyph unicode="?" horiz-adv-x="911" d="M66 1284q0 82 120.5 124t264.5 42q207 0 325.5 -98.5t118.5 -266.5q0 -164 -125 -282q-51 -51 -106 -94q-131 -104 -150 -199q-8 -31 -32.5 -43t-75.5 -12h-48q-100 0 -100 59q0 137 113 270q47 55 92 105q113 123 112 176q0 115 -151 115q-72 0 -149.5 -32t-79.5 -32 q-39 0 -84 65.5t-45 102.5zM225 61v189q0 66 123 65h66q123 0 123 -65v-189q0 -66 -123 -65h-66q-123 -1 -123 65z"/>
<glyph unicode="@" horiz-adv-x="1994" d="M172 492q0 403 266.5 680.5t655.5 277.5q309 0 495.5 -182.5t186.5 -472t-138.5 -483t-330 -193.5t-242.5 131q-78 -131 -231 -131q-127 0 -202 96t-75 274q0 246 105.5 398.5t273.5 152.5q117 0 209 -92q12 47 32.5 64.5t73.5 17.5h25q96 0 96 -53l-63 -615 q0 -74 71 -73q106 0 185.5 147.5t79.5 347.5q0 250 -152 402.5t-399 152.5q-332 0 -561.5 -245.5t-229.5 -601.5q0 -283 148.5 -458t388.5 -175q119 0 214 29.5t101 29.5q29 0 29 -68q0 -53 -116 -77.5t-228 -24.5q-297 0 -482.5 206t-185.5 538zM813 497q0 -171 117 -171 q70 0 133 98l27 268l16 101q-51 47 -111 47q-86 0 -134 -86t-48 -257z"/>
<glyph unicode="A" horiz-adv-x="1255" d="M0 41q0 8 8 37l451 1317q16 43 116 43h107q100 0 117 -43l450 -1317q6 -20 6 -37q0 -45 -102 -45h-90q-100 0 -115 43l-82 250h-483l-82 -250q-14 -43 -94 -43h-82q-125 0 -125 45zM471 559h307l-116 365l-31 131h-8q-18 -96 -31 -131z"/>
<glyph unicode="B" horiz-adv-x="1214" d="M141 82v1270q0 82 82 82h406q250 0 366.5 -96.5t116.5 -266.5q0 -102 -62.5 -187t-158.5 -124l2 -8q121 -25 198.5 -121t77.5 -215q0 -201 -128 -308.5t-384 -107.5h-434q-82 0 -82 82zM457 268h200q90 0 139.5 43t49.5 123q0 160 -221 160h-168v-326zM457 862h141 q90 0 140 43t50 111q0 151 -184 151h-2h-145v-305z"/>
<glyph unicode="C" horiz-adv-x="1267" d="M92 721q0 729 684 729q150 0 289 -41t139 -102q0 -45 -48 -119t-85 -74q-6 0 -43 16q-106 49 -258 50q-354 0 -354 -464t350 -464q147 0 283 61q45 20 53 21q43 0 82 -70.5t39 -107.5q0 -82 -151.5 -127t-305.5 -45q-344 0 -509 179t-165 558z"/>
<glyph unicode="D" horiz-adv-x="1423" d="M141 82v1270q0 82 82 82h459q317 0 486 -185.5t169 -531.5t-169 -531.5t-486 -185.5h-459q-82 0 -82 82zM459 268h223q164 0 248 115t84 334t-84 333.5t-248 114.5h-223v-897z"/>
<glyph unicode="E" horiz-adv-x="1118" d="M141 82v1270q0 82 82 82h750q61 0 61 -103v-63q0 -102 -61 -103h-516v-297h461q61 0 61 -102v-64q0 -102 -61 -102h-461v-332h518q61 0 61 -102v-64q0 -102 -61 -102h-752q-82 0 -82 82z"/>
<glyph unicode="F" horiz-adv-x="1030" d="M141 61v1291q0 82 82 82h684q61 0 62 -103v-63q0 -102 -62 -103h-450v-299h436q61 0 61 -102v-64q0 -102 -61 -102h-436v-537q0 -65 -119 -65h-4h-70h-4q-119 0 -119 65z"/>
<glyph unicode="G" horiz-adv-x="1376" d="M92 721q0 729 684 729q150 0 294 -42t144 -101q0 -45 -48 -119t-85 -74q-6 0 -45 16q-113 49 -266 50q-354 0 -354 -464t350 -464q82 0 160 14v260h-181q-61 0 -61 103v65q0 102 61 103h416q82 0 82 -82v-570q0 -49 -52 -83.5t-134 -49.5q-142 -28 -281 -28h-10 q-344 0 -509 179t-165 558z"/>
<glyph unicode="H" horiz-adv-x="1501" d="M172 61v1311q0 66 123 66h72q123 0 122 -66v-506h553v506q0 66 123 66h72q123 0 123 -66v-1311q0 -65 -119 -65h-4h-72q-123 0 -123 65v535h-553v-535q0 -65 -118 -65h-4h-72h-4q-119 0 -119 65z"/>
<glyph unicode="I" horiz-adv-x="577" d="M129 61v1311q0 68 123 68h72q123 0 122 -68v-1311q0 -67 -118 -67h-4h-72h-4q-119 0 -119 67z"/>
<glyph unicode="J" horiz-adv-x="823" d="M0 86q0 39 21.5 108.5t62.5 73.5q4 0 40 -8t75 -8q92 0 132 50t40 163v907q0 68 123 68h71q123 0 123 -68v-958q0 -203 -106.5 -316.5t-327.5 -113.5q-59 0 -126 11t-97.5 31.5t-30.5 59.5z"/>
<glyph unicode="K" horiz-adv-x="1179" d="M141 61v1311q0 66 123 66h72q123 0 123 -66v-549l8 -2l356 578q23 39 123 39h96q115 0 115 -31q0 -18 -16 -43l-396 -606l449 -688q16 -25 16 -43q0 -31 -114 -31h-119q-102 0 -125 39l-385 622l-8 -2v-594q0 -65 -119 -65h-4h-72h-4q-119 0 -119 65z"/>
<glyph unicode="L" horiz-adv-x="991" d="M141 82v1290q0 66 123 66h70q123 0 123 -66v-1104h456q61 0 62 -102v-64q0 -102 -62 -102h-690q-82 0 -82 82z"/>
<glyph unicode="M" horiz-adv-x="1726" d="M141 61v1311q0 66 123 66h109q98 0 129 -56l360 -641l365 641q31 55 129 56h106q123 0 123 -66v-1311q0 -65 -119 -65h-4h-59q-123 0 -123 65v848l-8 2l-297 -530q-29 -39 -82 -39h-59q-53 0 -82 39l-297 530l-9 -2v-848q0 -65 -118 -65h-4h-60h-4q-119 0 -119 65z"/>
<glyph unicode="N" horiz-adv-x="1472" d="M141 61v1311q0 66 123 66h88q98 0 135 -56l539 -829v819q0 66 123 66h59q123 0 123 -66v-1311q0 -65 -119 -65h-4h-78q-98 0 -135 55l-549 840v-830q0 -65 -118 -65h-4h-60h-4q-119 0 -119 65z"/>
<glyph unicode="O" horiz-adv-x="1497" d="M92 716.5q0 354.5 170 544t487.5 189.5t486.5 -189.5t169 -544t-169 -543.5t-486.5 -189t-487.5 189t-170 543.5zM416 716.5q0 -227.5 85 -346t248.5 -118.5t247.5 118.5t84 346t-84 345.5t-247.5 118t-248.5 -118t-85 -345.5z"/>
<glyph unicode="P" horiz-adv-x="1167" d="M141 61v1291q0 82 82 82h430q240 0 371 -119q49 -47 83 -132t34 -198t-39 -198t-93.5 -131t-123.5 -74q-109 -45 -211 -45h-217v-476q0 -65 -119 -65h-4h-70h-4q-119 0 -119 65zM457 807h182q74 0 126 39t52 139t-52 140t-126 40h-182v-358z"/>
<glyph unicode="Q" horiz-adv-x="1497" d="M92 717q0 354 170 543.5t487.5 189.5t486.5 -189.5t169 -543.5q0 -487 -322 -654v-8l314 -112q29 -10 29 -41q0 -32 -36 -117q-34 -84 -77 -84q-12 0 -281.5 107.5t-566.5 224.5q-182 72 -277.5 246t-95.5 438zM416 714.5q0 -229.5 85 -350t248.5 -120.5t247.5 120.5 t84 350t-84 347.5t-247.5 118t-248.5 -118t-85 -347.5z"/>
<glyph unicode="R" horiz-adv-x="1249" d="M141 61v1291q0 82 82 82h400q510 0 510 -385q0 -115 -64.5 -200t-175.5 -126v-8q39 -14 80 -68.5t67 -120.5l181 -450q10 -27 10 -39q0 -41 -123 -41h-84q-102 0 -119 43l-162 399q-35 68 -74.5 95.5t-131.5 27.5h-80v-500q0 -65 -119 -65h-4h-70h-4q-119 0 -119 65z M457 834h194q63 0 110.5 51t47.5 123.5t-46 114.5t-126 42h-180v-331z"/>
<glyph unicode="S" horiz-adv-x="1024" d="M45 164q0 47 47 114.5t80 67.5q12 0 53 -22q127 -72 248 -72q193 0 193 149q0 66 -61.5 111t-148.5 79t-173 78t-147.5 136t-61.5 230.5t73 236.5q133 178 412 178q156 0 262.5 -45t106.5 -98q0 -45 -39 -112t-74 -67q-8 0 -37 15q-82 37 -189.5 37t-149.5 -37t-42 -92.5 t61.5 -98.5t147.5 -75.5t173 -76.5t148.5 -136.5t61.5 -220.5t-40 -219t-109 -142q-135 -98 -332 -98t-330 59.5t-133 120.5z"/>
<glyph unicode="T" horiz-adv-x="1124" d="M16 1268v63q0 102 62 103h969q61 0 61 -103v-63q0 -102 -61 -103h-326v-1104q0 -65 -119 -65h-4h-72h-4q-119 0 -119 65v1104h-325q-61 0 -62 103z"/>
<glyph unicode="U" horiz-adv-x="1458" d="M135 479v893q0 66 123 66h70q123 0 123 -66v-872q0 -109 77.5 -178.5t200.5 -69.5t202 69.5t79 178.5v872q0 66 123 66h67q123 0 123 -66v-893q0 -236 -155.5 -365.5t-438.5 -129.5t-438.5 129.5t-155.5 365.5z"/>
<glyph unicode="V" horiz-adv-x="1263" d="M10 1393q0 45 125 45h68q102 0 121 -60l299 -958h8l307 958q20 59 121 60h63q123 0 123 -45q0 -16 -6 -37l-442 -1317q-14 -43 -115 -43h-107q-100 0 -114 43l-443 1317q-8 29 -8 37z"/>
<glyph unicode="W" horiz-adv-x="1806" d="M-8 1384q0 53 127 54h53q123 0 137 -64l154 -659q4 -14 63 -295q12 82 70 295l168 680q10 43 113 43h77q102 0 113 -43l162 -680q35 -150 69 -309q14 59 38 166.5t32 142.5l160 659q14 63 137 64h23q127 0 127 -54q0 -6 -5 -30l-333 -1315q-12 -43 -113 -43h-150 q-104 0 -112 43l-201 848l-209 -848q-12 -43 -112 -43h-148q-104 0 -113 43l-323 1315q-4 12 -4 30z"/>
<glyph unicode="X" horiz-adv-x="1251" d="M16 35q0 18 21 51l422 662l-375 600q-20 35 -21 51q0 39 132 39h84q100 0 122 -39l234 -381l246 381q25 39 125 39h79q129 0 129 -39q0 -23 -20 -51l-387 -605l410 -657q18 -31 18 -51q0 -39 -129 -39h-80q-100 0 -123 39l-272 440l-283 -440q-27 -39 -125 -39h-78 q-129 0 -129 39z"/>
<glyph unicode="Y" horiz-adv-x="1144" d="M-12 1397q0 41 131 41h88q100 0 123 -39l250 -438l251 438q23 39 123 39h74q129 0 129 -41q0 -20 -18 -51l-408 -664v-621q0 -65 -119 -65h-4h-69h-4q-119 0 -119 65v627l-408 658q-20 35 -20 51z"/>
<glyph unicode="Z" horiz-adv-x="1261" d="M55 166q0 29 4 37l686 962h-569q-61 0 -61 103v63q0 102 61 103h936q23 0 49.5 -72t26.5 -100.5t-2 -32.5l-684 -961h624q61 0 62 -102v-64q0 -102 -62 -102h-991q-25 0 -52.5 68.5t-27.5 97.5z"/>
<glyph unicode="[" horiz-adv-x="595" d="M133 -201v1692q0 82 82 82h258q61 0 62 -82v-31q0 -82 -62 -82h-104v-1466h104q61 0 62 -82v-31q0 -82 -62 -82h-258q-82 0 -82 82z"/>
<glyph unicode="\" horiz-adv-x="739" d="M4 1403q0 35 88 35h47q102 0 123 -62l473 -1360q6 -16 6 -28q0 -33 -88 -33h-49q-102 0 -123 61l-471 1360q-6 17 -6 27z"/>
<glyph unicode="]" horiz-adv-x="595" d="M63 -170q1 82 62 82h104v1466h-104q-61 0 -62 82v31q0 82 62 82h258q82 0 82 -82v-1692q0 -82 -82 -82h-258q-61 0 -62 82v31z"/>
<glyph unicode="^" horiz-adv-x="921" d="M72 682q0 14 8 31l264 630q25 61 86 62h64q59 0 86 -62l264 -630q8 -16 8 -31q0 -31 -66 -31h-43q-80 0 -106 62l-176 424l-176 -424q-27 -61 -105 -62h-43q-66 0 -65 31z"/>
<glyph unicode="_" horiz-adv-x="1093" d="M-41 -176q0 102 61 102h1055q61 0 62 -102v-14q0 -102 -62 -103h-1055q-61 0 -61 103v14z"/>
<glyph unicode="`" d="M111 1516q0 29 133 28.5t164 -55.5q25 -43 49 -86t38.5 -64.5t24.5 -42.5q20 -35 21 -47q-1 -30 -64 -30q-106 0 -160.5 59t-119 128t-75.5 83t-11 27z"/>
<glyph unicode="a" horiz-adv-x="1116" d="M86 283q0 57 10 104t47 101.5t99 89.5q145 86 432 86v67q0 117 -160 117q-113 0 -219 -49q-37 -16 -43 -17q-31 0 -69 63.5t-38 100.5q0 55 114 98t278 43q440 0 440 -342v-385q0 -127 12 -213l12 -84q0 -33 -82.5 -49t-123.5 -16t-54.5 8t-21.5 27.5t-12.5 31t-9.5 40 t-7 34.5q-37 -66 -127 -110.5t-174 -44.5q-158 0 -230.5 82t-72.5 217zM387 313q0 -41 26.5 -65.5t80 -24.5t104.5 37t76 92v113q-287 0 -287 -152z"/>
<glyph unicode="b" horiz-adv-x="1165" d="M135 61v1418q0 65 119 65h4h57q123 0 123 -65v-455q88 63 209 63q205 0 318.5 -148t113.5 -405.5t-106.5 -403.5t-276.5 -146q-92 0 -164.5 43t-109.5 110l-21 -88q-12 -53 -118 -53h-25h-4q-119 0 -119 65zM438 352q70 -121 168 -121q166 0 166 308.5t-190 308.5 q-74 0 -144 -39v-457z"/>
<glyph unicode="c" horiz-adv-x="993" d="M86 529.5q0 277.5 128 417.5t398 140q125 0 232.5 -37.5t107.5 -103.5q0 -31 -42 -94.5t-66 -63.5q-8 0 -37 15q-90 45 -194.5 45t-160 -76t-55.5 -235.5t52.5 -236.5t160 -77t207.5 47q33 12 37 13q31 0 69 -60.5t38 -97.5t-45.5 -67.5t-108.5 -45.5q-127 -28 -200 -28 h-5q-262 0 -389 134t-127 411.5z"/>
<glyph unicode="d" horiz-adv-x="1157" d="M86 533.5q0 257.5 113.5 405.5t318.5 148q121 0 209 -63v455q0 65 119 65h4h57q123 0 123 -65v-1119q0 -127 12 -213l13 -84q0 -33 -83 -49t-124 -16t-54.5 8t-21.5 26.5t-12 31t-9.5 40t-7.5 33.5q-37 -68 -109.5 -110.5t-164.5 -42.5q-170 0 -276.5 146t-106.5 403.5z M393 538q0 -307 166 -307q98 0 168 121v457q-70 39 -143 39q-191 0 -191 -310z"/>
<glyph unicode="e" horiz-adv-x="1103" d="M86 544.5q0 272.5 132 407.5t362.5 135t338 -147t107.5 -381q0 -25 -42 -73t-62 -48h-523q10 -117 69.5 -166t152 -49t176.5 32t86 32q31 0 68.5 -60.5t37.5 -95.5q0 -68 -128 -107.5t-240 -39.5q-271 0 -403 144t-132 416.5zM399 641h332q0 94 -37 150.5t-110 56.5 q-152 0 -185 -207z"/>
<glyph unicode="f" horiz-adv-x="665" d="M63 934v35q0 102 62 102h37v154q0 331 297 331h2q205 0 205 -100q0 -27 -18.5 -87t-45.5 -60l-63 8q-74 0 -74 -88v-158h102q61 0 62 -102v-35q0 -102 -62 -103h-102v-770q0 -65 -119 -65h-4h-57q-123 0 -123 65v770h-37q-61 0 -62 103z"/>
<glyph unicode="g" horiz-adv-x="1118" d="M49 -152q0 166 187 238l2 8q-88 45 -88 151.5t122 172.5q-166 92 -166 291.5t122 288.5t319 89q80 0 158 -16h329q61 0 62 -102v-35q0 -96 -50.5 -96t-87.5 8l-4 -8q33 -43 33 -115q0 -182 -115.5 -272.5t-302.5 -90.5q-125 0 -125 -55q0 -59 162 -74q162 -14 299 -67 q68 -27 114 -91.5t46 -158.5q0 -158 -145.5 -253t-382.5 -95h-3q-485 0 -485 282zM344 -102q0 -92 213 -92q1 -1 2 -1q211 0 211 101q0 47 -68.5 68.5t-246.5 33.5q-111 -38 -111 -110zM393 724q0 -73 43 -108.5t110.5 -35.5t110.5 35.5t43 108.5t-43 108.5t-110.5 35.5 t-110.5 -35.5t-43 -108.5z"/>
<glyph unicode="h" horiz-adv-x="1157" d="M135 61v1418q0 65 119 65h4h57q123 0 123 -65v-531q117 139 289 139q309 0 309 -331v-695q0 -65 -119 -65h-4h-57q-123 0 -123 65v650q0 127 -131 127q-102 0 -164 -119v-658q0 -65 -119 -65h-4h-57h-4q-119 0 -119 65z"/>
<glyph unicode="i" horiz-adv-x="542" d="M121 61v949q0 65 119 65h4h57q123 0 123 -65v-949q0 -65 -119 -65h-4h-57h-4q-119 0 -119 65zM121 1313v166q0 65 119 65h4h57q123 0 123 -65v-166q0 -66 -123 -66h-57q-123 0 -123 66z"/>
<glyph unicode="j" horiz-adv-x="565" d="M-66 -337q0 50 22.5 100.5t51.5 50.5l62 -9q74 0 73 89v1116q0 65 119 65h4h58q123 0 122 -65v-1112q0 -162 -82.5 -247t-209.5 -85t-173.5 23.5t-46.5 73.5zM143 1313v166q0 65 119 65h4h58q123 0 122 -65v-166q0 -66 -122 -66h-58q-123 0 -123 66z"/>
<glyph unicode="k" horiz-adv-x="1067" d="M135 61v1418q0 65 119 65h4h57q123 0 123 -65v-811l8 -2l248 370q27 39 125 39h76q115 0 115 -31q0 -16 -19 -40l-284 -406l333 -528q16 -29 17 -43q0 -31 -117 -31h-86q-100 0 -123 39l-285 471l-8 -2v-443q0 -65 -119 -65h-4h-57h-4q-119 0 -119 65z"/>
<glyph unicode="l" horiz-adv-x="608" d="M129 315v1164q0 65 119 65h4h57q123 0 123 -65v-1168q0 -88 74 -88l55 8q27 0 45.5 -60t18.5 -87q0 -100 -197 -100q-299 0 -299 331z"/>
<glyph unicode="m" horiz-adv-x="1736" d="M102 999q0 33 83 49.5t124 16.5t54.5 -8t21.5 -25.5t12 -29t9.5 -38t7.5 -32.5q49 66 130 110.5t173 44.5q211 0 270 -155q51 66 135 110.5t181 44.5q154 0 226.5 -80.5t72.5 -250.5v-695q0 -65 -119 -65h-4h-58q-123 0 -123 65v650q0 127 -120 127q-100 0 -162 -119 v-658q0 -65 -119 -65h-4h-57q-123 0 -123 65v650q0 127 -121 127q-100 0 -162 -119v-658q0 -65 -119 -65h-4h-57h-4q-119 0 -119 65v650q0 154 -12.5 215t-12.5 73z"/>
<glyph unicode="n" horiz-adv-x="1140" d="M102 999q0 33 83 49.5t124 16.5t54.5 -8t21.5 -25.5t12 -29t9.5 -38t7.5 -32.5q49 66 131 110.5t174 44.5q154 0 227.5 -80.5t73.5 -250.5v-695q0 -65 -119 -65h-4h-57q-123 0 -123 65v650q0 127 -123 127q-102 0 -164 -119v-658q0 -65 -119 -65h-4h-57h-4 q-119 0 -119 65v650q0 154 -12.5 215t-12.5 73z"/>
<glyph unicode="o" horiz-adv-x="1165" d="M86 536.5q0 268.5 127 409.5t370.5 141t369.5 -141t126 -409.5t-126 -410.5t-369.5 -142t-370.5 142t-127 410.5zM393 535.5q0 -312.5 189.5 -312.5t189.5 312.5t-189.5 312.5t-189.5 -312.5z"/>
<glyph unicode="p" horiz-adv-x="1173" d="M119 999q0 33 83 49.5t124 16.5t54 -8t21.5 -25.5t12.5 -30t9 -37t7 -30.5q37 68 109.5 110.5t165.5 42.5q170 0 276 -146t106 -403t-113.5 -405.5t-318.5 -148.5q-121 0 -209 63v-403q0 -66 -122 -66h-58q-123 0 -123 66v1067q0 154 -12 215t-12 73zM446 262 q70 -39 144 -39q190 0 190 308.5t-166 308.5q-98 0 -168 -121v-457z"/>
<glyph unicode="q" horiz-adv-x="1159" d="M86 538q0 257 108.5 403t284.5 146q92 0 165 -43t110 -110l20 88q12 53 119 53h25q123 0 122 -65v-1366q0 -66 -122 -66h-58q-123 0 -123 66v403q-88 -63 -209 -63q-209 0 -325.5 148.5t-116.5 405.5zM393 531.5q0 -308.5 201 -308.5q74 0 143 39v457q-70 121 -168 121 q-176 0 -176 -308.5z"/>
<glyph unicode="r" horiz-adv-x="749" d="M102 999q0 33 83 49.5t124 16.5t54.5 -8t21.5 -25.5t12 -29t9.5 -38t7.5 -32.5q85 155 221 155h2q66 0 91.5 -33.5t25.5 -76.5t-18.5 -107.5t-45.5 -64.5q-12 0 -43 8t-53 8q-102 0 -164 -102v-658q0 -65 -119 -65h-4h-57h-4q-119 0 -119 65v650q0 154 -12.5 215 t-12.5 73z"/>
<glyph unicode="s" horiz-adv-x="845" d="M63 129q0 33 39 92.5t70 59.5q4 0 73.5 -29t127.5 -29q125 0 125 92q0 49 -42 79t-102.5 50.5t-121 49t-102.5 94t-42 168.5q0 154 101.5 242.5t275.5 88.5q82 0 156 -16q147 -33 147 -113q0 -27 -30.5 -89t-57.5 -62q-2 0 -60.5 21.5t-113.5 21.5q-111 0 -111 -74 q0 -41 42 -66.5t102.5 -47t121 -53t102.5 -100.5t42 -169q0 -162 -105.5 -259t-264.5 -97t-265.5 37.5t-106.5 107.5z"/>
<glyph unicode="t" horiz-adv-x="700" d="M63 934v35q0 102 62 102h33l26 195q10 65 108 65h3h63q102 0 103 -65v-195h100q61 0 62 -102v-35q0 -102 -62 -103h-100v-520q0 -88 74 -88l55 8q27 0 45 -60t18 -87q0 -100 -196 -100q-299 0 -299 331v516h-33q-61 0 -62 103z"/>
<glyph unicode="u" horiz-adv-x="1140" d="M121 315v695q0 65 119 65h4h57q123 0 123 -65v-650q0 -127 123 -127q102 0 164 119v658q0 65 119 65h4h57q123 0 123 -65v-650q0 -127 12 -213l12 -84q0 -33 -83 -49t-123.5 -16t-54 8t-21.5 27.5t-12.5 31t-9.5 40t-7 34.5q-49 -66 -130 -110.5t-175 -44.5 q-154 0 -227.5 80.5t-73.5 250.5z"/>
<glyph unicode="v" horiz-adv-x="993" d="M14 1030q0 45 125 45h68q100 0 115 -43l120 -379q4 -16 58 -247h8q37 180 57 247l121 379q14 43 115 43h51q123 0 123 -45q0 -14 -6 -37l-326 -954q-14 -43 -115 -43h-65q-100 0 -115 43l-325 954q-9 29 -9 37z"/>
<glyph unicode="w" horiz-adv-x="1529" d="M37 1022q0 53 127 53h49q100 0 113 -43l161 -631l156 631q8 43 113 43h49q104 0 113 -43l151 -631l166 631q12 43 113 43h8q127 0 127 -53q0 -6 -4 -31l-242 -952q-12 -43 -113 -43h-100q-100 0 -113 43l-147 575l-139 -575q-10 -43 -113 -43h-100q-100 0 -113 43 l-258 952q-4 13 -4 31z"/>
<glyph unicode="x" horiz-adv-x="993" d="M10 33q0 16 23 51l309 459l-291 442q-23 35 -22 53q0 37 129 37h65q100 0 125 -39l156 -252l162 252q25 39 125 39h59q129 0 129 -37q0 -16 -23 -51l-299 -442l304 -459q23 -35 22 -53q0 -37 -129 -37h-66q-100 0 -124 39l-168 268l-170 -268q-25 -39 -125 -39h-62 q-129 0 -129 37z"/>
<glyph unicode="y" horiz-adv-x="985" d="M20 1030q0 45 125 45h66q100 0 115 -43l120 -379q18 -57 58 -247h8q41 197 57 247l121 379q14 43 115 43h49q123 0 123 -45q0 -14 -6 -37l-469 -1372q-16 -43 -115 -43h-35q-123 0 -123 43q0 18 9 37l129 342l-338 993q-9 29 -9 37z"/>
<glyph unicode="z" horiz-adv-x="1001" d="M55 144.5q0 31.5 6 39.5l469 647h-380q-61 0 -62 103v35q0 102 62 102h724q16 0 38 -57.5t22 -89t-6 -41.5l-467 -643h420q61 0 61 -103v-35q0 -102 -61 -102h-766q-18 0 -39 56.5t-21 88z"/>
<glyph unicode="{" horiz-adv-x="561" d="M37 633v24q0 68 59 103q53 23 75 76t22 155v344q0 104 56 171t146 67h80q61 0 62 -82v-29q0 -80 -54 -82h4q-59 0 -59 -73v-349q0 -233 -139 -313q139 -80 139 -313v-348q0 -68 49 -74q59 0 60 -82v-29q0 -82 -62 -82h-80q-90 0 -146 67t-56 171v344q0 102 -21.5 155.5 t-75.5 75.5q-59 35 -59 103z"/>
<glyph unicode="|" horiz-adv-x="512" d="M139 -221v1732q0 61 103 62h30q102 0 103 -62v-1732q0 -61 -103 -62h-30q-103 1 -103 62z"/>
<glyph unicode="}" horiz-adv-x="561" d="M39 -172q0 82 57 82q51 6 51 74v348q0 233 140 313q-139 80 -140 313v349q0 74 -59 73h2q-51 2 -51 82v29q0 82 61 82h80q90 0 146.5 -66.5t56.5 -171.5v-344q0 -102 21.5 -155.5t74.5 -75.5q59 -35 60 -103v-24q0 -68 -60 -103q-53 -23 -74.5 -76t-21.5 -155v-344 q0 -104 -56.5 -171t-146.5 -67h-80q-61 0 -61 82v29z"/>
<glyph unicode="~" horiz-adv-x="1120" d="M131 543q0 53 104.5 109.5t186.5 56.5t192.5 -43t149.5 -43t82 15t68.5 15t51 -41t25.5 -77q0 -57 -108.5 -108.5t-188.5 -51.5t-189.5 43t-153.5 43t-84 -11.5t-61.5 -11.5t-48 35t-26.5 70z"/>
<glyph unicode="¡" horiz-adv-x="602" d="M96 -311q0 14 103 860q4 35 24.5 50t79.5 15h23q59 0 81.5 -15t22.5 -50v-852q0 -66 -123 -66h-88q-123 1 -123 58zM160 821v189q0 66 123 65h65q123 0 123 -65v-189q0 -66 -123 -65h-65q-123 0 -123 65z"/>
<glyph unicode="¢" horiz-adv-x="995" d="M86 527q0 261 109.5 401.5t343.5 156.5v56q0 61 55 61q61 0 61 -61v-56q111 -8 196 -44.5t85 -94.5q0 -31 -42 -94.5t-67 -63.5q-6 0 -61 26t-111 32v-621q61 6 118.5 32t64.5 26q31 0 68.5 -60.5t37.5 -95.5q0 -106 -289 -139v-86q0 -61 -55 -62q-61 0 -61 62v84 q-230 12 -341.5 146t-111.5 395zM393.5 533.5q-0.5 -261.5 145.5 -302.5v607q-145 -43 -145.5 -304.5z"/>
<glyph unicode="£" horiz-adv-x="1005" d="M37 82v39q0 49 78 98q29 18 53.5 55t24.5 84v279h-68q-61 0 -62 102v35q0 102 62 103h68v151q0 422 471 422q225 0 225 -92q0 -53 -27.5 -103.5t-54.5 -50.5q-2 0 -21 4q-59 12 -110 13q-186 0 -187 -183v-161h222q61 0 61 -103v-35q0 -102 -61 -102h-222v-123 q0 -190 -83 -274h456q61 0 62 -103v-35q0 -102 -62 -102h-743q-82 0 -82 82z"/>
<glyph unicode="¤" horiz-adv-x="1093" d="M79.5 915.5q0.5 26.5 24.5 51.5l62 61q25 25 51.5 25t50.5 -25l58 -57q100 53 208.5 53t208.5 -55l60 59q25 25 51.5 25t50.5 -25l62 -61q25 -25 24.5 -51.5t-24.5 -51.5l-60 -59q57 -98 57.5 -209t-53.5 -211l50 -49q25 -25 24.5 -51.5t-24.5 -51.5l-62 -61 q-25 -25 -51.5 -25t-50.5 25l-47 47q-96 -59 -214 -59t-219 55l-43 -43q-25 -25 -51 -25t-51 25l-61 61q-25 25 -25 51.5t25 51.5l45 45q-55 98 -55.5 215t59.5 213l-56 55q-25 25 -24.5 51.5zM334 592q0 -84 58.5 -141.5t140 -57.5t140 57.5t58.5 141.5t-58.5 141.5 t-140 57.5t-140 -57.5t-58.5 -141.5z"/>
<glyph unicode="¥" horiz-adv-x="1144" d="M-8 1397q0 41 131 41h88q100 0 123 -39l250 -438l252 438q23 39 122 39h74q129 0 129 -41q0 -20 -18 -51l-314 -508h168q61 0 62 -62v-31q0 -63 -62 -63h-262v-129h262q61 0 62 -61v-31q0 -61 -62 -62h-262v-338q0 -66 -123 -65h-69q-123 0 -123 65v338h-277 q-61 0 -61 62v31q0 61 61 61h277v131h-277q-61 0 -61 61v31q0 61 61 62h183l-314 508q-20 35 -20 51z"/>
<glyph unicode="¦" horiz-adv-x="512" d="M139 -221v667q0 66 103 66h30q102 0 103 -66v-667q0 -66 -103 -66h-30q-103 0 -103 66zM139 844v667q0 66 103 66h30q102 0 103 -66v-667q0 -66 -103 -66h-30q-102 0 -103 66z"/>
<glyph unicode="§" horiz-adv-x="878" d="M84 1145q0 137 101.5 221t275.5 84q82 0 155 -16q147 -33 148 -113q0 -27 -31 -89.5t-57 -62.5q-2 0 -60.5 21.5t-113.5 21.5q-111 0 -111 -63q0 -37 42 -61.5t102.5 -47t121 -54.5t102.5 -99.5t42 -185t-76 -205.5q78 -74 78 -208t-101.5 -218t-275.5 -84 q-82 0 -156.5 16t-110.5 44t-36 61.5t30.5 96t57.5 62.5q2 0 60.5 -21.5t113.5 -21.5q111 0 111 64q0 37 -42 61.5t-102.5 47t-121 54t-102.5 99t-42 183.5t76 208q-78 68 -78 205zM352.5 746.5q-0.5 -56.5 40.5 -88t123 -60.5q18 41 18.5 94t-40.5 85t-123 61 q-18 -35 -18.5 -91.5z"/>
<glyph unicode="¨" d="M23 1249v123q0 66 122.5 66t122.5 -66v-123q0 -65 -122.5 -65t-122.5 65zM391 1249v123q0 66 123 66t123 -66v-123q0 -65 -123 -65t-123 65z"/>
<glyph unicode="©" horiz-adv-x="1513" d="M20 717q0 303 215.5 518t518.5 215t518 -215t215 -518t-215 -518t-518 -215t-518.5 215t-215.5 518zM152 717q0 -250 176 -426t426 -176t426 176t176 426t-176 426t-426 176t-426 -176t-176 -426zM403 723q0 408 381 407q84 0 162 -23.5t78 -55.5q0 -27 -26.5 -68 t-47.5 -41q-4 0 -24 8q-57 29 -144 29q-199 0 -198.5 -259t196.5 -259q88 0 158 35q25 12 29 12q25 0 46 -40t21 -60q0 -47 -84 -72t-170 -25q-193 0 -285 100.5t-92 311.5z"/>
<glyph unicode="ª" horiz-adv-x="653" d="M86 1049q0 190 293 190v33q0 57 -80 57q-61 0 -94 -15.5t-37 -15.5q-14 0 -32.5 32t-18.5 50q0 27 56 48.5t138 21.5q217 0 217 -170v-193q0 -82 6.5 -110.5t6.5 -34.5q0 -16 -41 -25.5t-61.5 -9.5t-26.5 4t-10.5 13.5t-6.5 15.5q-8 25 -8 37q-12 -31 -60 -53.5 t-91 -22.5q-150 0 -150 148zM236 1065q0 -45 57 -45t86 63v56q-143 0 -143 -74z"/>
<glyph unicode="«" horiz-adv-x="964" d="M55 528.5q0 51.5 33 89.5l260 314q27 29 57.5 29t74.5 -34t44 -60.5t-18 -51.5l-225 -287l225 -286q18 -25 18 -51.5t-43 -61.5t-73.5 -35t-59.5 31l-260 313q-33 39 -33 90.5zM463 528.5q0 51.5 33 89.5l260 314q27 29 57.5 29t74.5 -34t44 -60.5t-19 -51.5l-225 -287 l225 -286q18 -25 18.5 -51.5t-42.5 -61.5t-75 -35t-58 31l-260 313q-33 39 -33 90.5z"/>
<glyph unicode="¬" horiz-adv-x="1146" d="M61 598v14q0 102 62 103h881q82 0 81 -82v-420q0 -66 -81 -66h-41q-82 0 -82 66v283h-758q-61 0 -62 102z"/>
<glyph unicode="­" d="M61 537v14q0 102 62 102h399q61 0 62 -102v-14q0 -102 -62 -103h-399q-61 0 -62 103z"/>
<glyph unicode="®" horiz-adv-x="1513" d="M20 717q0 303 215.5 518t518.5 215t518 -215t215 -518t-215 -518t-518 -215t-518.5 215t-215.5 518zM152 717q0 -250 176 -426t426 -176t426 176t176 426t-176 426t-426 176t-426 -176t-176 -426zM494 356v721q0 45 45 45h223q285 0 285 -215q0 -129 -136 -182v-8 q55 -25 84 -101l101 -251q6 -14 6 -23q0 -23 -68 -23h-47q-57 0 -67 25l-91 223q-18 37 -40.5 52.5t-73.5 15.5h-45v-279q0 -37 -70 -37h-37q-69 0 -69 37zM670 786h108q35 0 61.5 30t26.5 70t-25.5 63.5t-70.5 23.5h-100v-187z"/>
<glyph unicode="¯" d="M43 1305v30q0 82 61 82h441q61 0 61 -82v-30q0 -82 -61 -82h-441q-61 0 -61 82z"/>
<glyph unicode="°" horiz-adv-x="706" d="M78 1177.5q0 112.5 79 192.5t191.5 80t192.5 -80t80 -192.5t-80 -191.5t-192.5 -79t-191.5 79t-79 191.5zM211 1177.5q0 -59.5 40 -101.5t97.5 -42t98 42t40.5 101.5t-40.5 102.5t-98 43t-97.5 -43t-40 -102.5z"/>
<glyph unicode="±" horiz-adv-x="1146" d="M84 102v15q0 102 61 102h856q61 0 62 -102v-15q0 -102 -62 -102h-856q-61 0 -61 102zM84 741v15q0 102 61 102h310v316q0 61 102 61h29q102 0 102 -61v-316h313q61 0 62 -102v-15q0 -102 -62 -102h-313v-311q0 -61 -102 -62h-29q-102 1 -102 62v311h-310q-61 0 -61 102z "/>
<glyph unicode="²" d="M33 694.5q0 20.5 4 28.5l303 369q45 55 45 108q0 104 -111 105q-47 0 -94 -25l-45 -25q-27 0 -48 28t-21 54q0 49 72.5 79t180 30t177 -64.5t69.5 -169t-73 -196.5l-224 -279h275q37 0 37 -57v-21q0 -61 -37 -61h-475q-12 0 -23.5 38t-11.5 58.5z"/>
<glyph unicode="³" d="M43 688q0 20 19.5 55t39.5 35l58 -24q57 -25 114.5 -25t89 31t31.5 86q0 123 -141 123h-33q-37 0 -37 59v23q0 59 37 59h23q57 0 91 27.5t34 72.5q0 98 -99 99q-55 0 -97 -19.5t-44 -19.5q-18 0 -39.5 33.5t-21.5 58.5q0 43 68.5 65.5t174 22.5t172 -57.5t66.5 -153.5 q0 -125 -113 -174v-8q139 -55 139 -213q0 -119 -74.5 -187.5t-180 -68.5t-191.5 24.5t-86 75.5z"/>
<glyph unicode="´" d="M111 1249q0 20 29.5 65.5t54 88.5t49.5 86q31 55 164 55t133 -28q0 -12 -12.5 -29t-49.5 -54.5t-51 -53t-43 -47.5t-57 -62q-48 -51 -154 -51q-63 0 -63 30z"/>
<glyph unicode="µ" horiz-adv-x="1159" d="M109 -356v1366q0 66 122 65h58q123 0 123 -65v-650q0 -127 123 -127q102 0 163 119v658q0 66 123 65h58q123 0 122 -65v-650q0 -127 13 -213l12 -84q0 -33 -83 -49t-124 -16t-54 8t-21.5 27.5t-12.5 31t-9 40t-7 34.5q-49 -63 -130 -108t-173 -47v-340q0 -66 -123 -66 h-58q-122 0 -122 66z"/>
<glyph unicode="¶" horiz-adv-x="1054" d="M84 982.5q0 191.5 134 321.5t331 130h416q61 0 61 -63.5t-61 -63.5h-54v-1596q0 -61 -63.5 -61t-63.5 61v1596h-159v-1596q0 -61 -63.5 -61t-63.5 61v795q-174 20 -294 152.5t-120 324z"/>
<glyph unicode="·" horiz-adv-x="546" d="M145 735.5q0 59.5 42 101.5t101.5 42t101.5 -42t42 -101.5t-42 -101.5t-101.5 -42t-101.5 42t-42 101.5z"/>
<glyph unicode="¸" d="M59 -332q0 45 23.5 67.5t42 22.5t79 -21.5t108.5 -21.5t48 35q0 27 -54 50.5t-54 47.5q0 16 51 172h135l-26 -94q160 -33 159 -155q0 -205 -243 -205q-96 0 -182.5 28.5t-86.5 73.5z"/>
<glyph unicode="¹" horiz-adv-x="444" d="M31 1354q0 29 30 35l299 53q14 0 31 -9.5t17 -19.5v-774q0 -39 -72 -39h-33q-72 0 -72 39v639l-161 -27q-39 0 -39 103z"/>
<glyph unicode="º" horiz-adv-x="690" d="M96 1177.5q0 133.5 63.5 203t184.5 69.5q246 0 246 -273.5t-246 -273.5q-121 0 -184.5 70.5t-63.5 204zM250 1176.5q0 -154.5 93 -154.5t93 154.5t-93 154.5t-93 -154.5z"/>
<glyph unicode="»" horiz-adv-x="964" d="M86 190.5q0 26.5 18 51.5l226 286l-226 287q-18 25 -18 51.5t44 60.5t75 34t57 -29l260 -314q33 -39 33 -90t-33 -90l-260 -313q-29 -31 -59.5 -31t-73.5 35t-43 61.5zM494 190.5q0 26.5 18 51.5l225 286l-225 287q-18 25 -18 51.5t44 60.5t74.5 34t57.5 -29l260 -314 q33 -39 33 -90t-33 -90l-260 -313q-27 -31 -58.5 -31t-74.5 35t-43 61.5z"/>
<glyph unicode="¼" horiz-adv-x="1374" d="M31 1354q0 29 30 35l299 53q14 0 31 -9.5t17 -19.5v-774q0 -39 -72 -39h-33q-72 0 -72 39v639l-161 -27q-39 0 -39 103zM229 23q0 12 13 30l735 1327q29 53 92 54h35q43 0 43 -23q0 -12 -12 -31l-736 -1327q-31 -53 -92 -53h-35q-43 0 -43 23zM713 269.5q0 19.5 2 23.5 l354 524q18 23 74 23h31q72 0 71 -39v-494h47q35 0 35 -59v-21q0 -59 -35 -59h-47v-133q0 -39 -71 -39h-33q-72 0 -72 39v133h-313q-15 0 -29 41t-14 60.5zM891 307h178v185l14 108h-8z"/>
<glyph unicode="½" horiz-adv-x="1527" d="M31 1354q0 29 30 35l299 53q14 0 31 -9.5t17 -19.5v-774q0 -39 -72 -39h-33q-72 0 -72 39v639l-161 -27q-39 0 -39 103zM229 23q0 12 13 30l735 1327q29 53 92 54h35q43 0 43 -23q0 -12 -12 -31l-736 -1327q-31 -53 -92 -53h-35q-43 0 -43 23zM889 96.5q0 20.5 4 28.5 l303 369q45 55 45 108q0 104 -111 105q-47 0 -94 -25l-45 -25q-27 0 -48 28t-21 54q0 49 72.5 79t180 30t177 -64.5t69.5 -169t-73 -196.5l-224 -279h275q37 0 37 -57v-21q0 -61 -37 -61h-475q-13 0 -24 38t-11 58.5z"/>
<glyph unicode="¾" horiz-adv-x="1511" d="M55 688q0 20 19.5 55t40.5 35l57 -24q57 -25 114.5 -25t89.5 31t32 86q0 123 -142 123h-33q-37 0 -36 59v23q0 59 36 59h23q57 0 91 27.5t34 72.5q0 98 -98 99q-55 0 -97.5 -19.5t-44.5 -19.5q-18 0 -39.5 33.5t-21.5 58.5q0 43 68.5 65.5t174 22.5t172 -57.5 t66.5 -153.5q0 -125 -112 -174v-8q139 -55 139 -213q0 -119 -75 -187.5t-180.5 -68.5t-191.5 24.5t-86 75.5zM307 23q0 12 12 30l736 1327q29 53 92 54h35q43 0 43 -23q0 -12 -13 -31l-735 -1327q-31 -53 -92 -53h-35q-43 0 -43 23zM791 269.5q0 19.5 2 23.5l354 524 q18 23 74 23h30q72 0 72 -39v-494h47q35 0 35 -59v-21q0 -59 -35 -59h-47v-133q0 -39 -72 -39h-32q-72 0 -72 39v133h-313q-15 0 -29 41t-14 60.5zM969 307h178v185l14 108h-8z"/>
<glyph unicode="¿" horiz-adv-x="870" d="M37 -16.5q0 165.5 123 286.5q53 49 106 92q133 104 152 199q8 31 32.5 43t75.5 12h47q100 0 101 -59q0 -137 -113 -270q-45 -55 -92 -107q-113 -119 -113 -174q0 -115 152 -115q70 0 147.5 32t81.5 32q39 0 84 -65.5t45 -102.5q0 -82 -120.5 -124t-264.5 -42 q-207 0 -325.5 98.5t-118.5 264zM395 821v189q0 66 123 65h66q123 0 123 -65v-189q0 -66 -123 -65h-66q-123 -1 -123 65z"/>
<glyph unicode="À" horiz-adv-x="1255" d="M0 41q0 8 8 37l451 1317q16 43 116 43h107q100 0 117 -43l450 -1317q6 -20 6 -37q0 -45 -102 -45h-90q-100 0 -115 43l-82 250h-483l-82 -250q-14 -43 -94 -43h-82q-125 0 -125 45zM383 1884q0 29 133 29t164 -55q25 -43 49.5 -86t38.5 -64.5t27 -42.5q18 -35 18 -47 q0 -31 -63 -31q-106 0 -160.5 59.5t-119 128t-76 83t-11.5 26.5zM471 559h307l-116 365l-31 131h-8q-18 -96 -31 -131z"/>
<glyph unicode="Á" horiz-adv-x="1255" d="M0 41q0 8 8 37l451 1317q16 43 116 43h107q100 0 117 -43l450 -1317q6 -20 6 -37q0 -45 -102 -45h-90q-100 0 -115 43l-82 250h-483l-82 -250q-14 -43 -94 -43h-82q-125 0 -125 45zM469 1618q0 20 29.5 65.5t54.5 88.5t49 86q31 55 164 55t133 -29q0 -12 -12.5 -28.5 t-49 -54.5t-51 -53t-43 -47t-57.5 -63q-48 -51 -154 -51q-63 0 -63 31zM471 559h307l-116 365l-31 131h-8q-18 -96 -31 -131z"/>
<glyph unicode="Â" horiz-adv-x="1255" d="M0 41q0 8 8 37l451 1317q16 43 116 43h107q100 0 117 -43l450 -1317q6 -20 6 -37q0 -45 -102 -45h-90q-100 0 -115 43l-82 250h-483l-82 -250q-14 -43 -94 -43h-82q-125 0 -125 45zM342 1581q0 12 12 31l133 209q25 39 125 39h23q100 0 125 -39l133 -209q12 -18 12 -31 q0 -20 -41 -20h-45q-106 0 -139 49l-57 82l-58 -80q-37 -51 -137 -51h-45q-41 0 -41 20zM471 559h307l-116 365l-31 131h-8q-18 -96 -31 -131z"/>
<glyph unicode="Ã" horiz-adv-x="1255" d="M0 41q0 8 8 37l451 1317q16 43 116 43h107q100 0 117 -43l450 -1317q6 -20 6 -37q0 -45 -102 -45h-90q-100 0 -115 43l-82 250h-483l-82 -250q-14 -43 -94 -43h-82q-125 0 -125 45zM297 1703q0 38 68.5 77t139 39t151.5 -20.5t118 -20.5l94 22q31 0 57.5 -29.5 t26.5 -67.5t-68.5 -77t-139 -39t-152.5 20.5t-117 20.5l-92 -22q-33 0 -59.5 29.5t-26.5 67.5zM471 559h307l-116 365l-31 131h-8q-18 -96 -31 -131z"/>
<glyph unicode="Ä" horiz-adv-x="1255" d="M0 41q0 8 8 37l451 1317q16 43 116 43h107q100 0 117 -43l450 -1317q6 -20 6 -37q0 -45 -102 -45h-90q-100 0 -115 43l-82 250h-483l-82 -250q-14 -43 -94 -43h-82q-125 0 -125 45zM317 1618v123q0 66 123 65.5t123 -65.5v-123q0 -66 -123 -66t-123 66zM471 559h307 l-116 365l-31 131h-8q-18 -96 -31 -131zM686 1618v123q0 66 123 65.5t123 -65.5v-123q0 -66 -123 -66t-123 66z"/>
<glyph unicode="Å" horiz-adv-x="1255" d="M0 41q0 8 8 37l451 1317q16 43 116 43h107q100 0 117 -43l450 -1317q6 -20 6 -37q0 -45 -102 -45h-90q-100 0 -115 43l-82 250h-483l-82 -250q-14 -43 -94 -43h-82q-125 0 -125 45zM422 1698q0 86 58.5 145.5t144.5 59.5t145 -59.5t59 -145.5t-59 -144.5t-145 -58.5 t-144.5 58.5t-58.5 144.5zM471 559h307l-116 365l-31 131h-8q-18 -96 -31 -131zM551 1695.5q0 -30.5 21.5 -52t52 -21.5t53 21.5t22.5 52t-22.5 53.5t-53 23t-52 -23t-21.5 -53.5z"/>
<glyph unicode="Æ" horiz-adv-x="1873" d="M2 41q0 20 8 37l658 1300q29 55 90 56h950q61 0 61 -103v-63q0 -102 -61 -103h-649l57 -297h537q61 0 61 -102v-64q0 -102 -61 -102h-484l64 -332h477q61 0 62 -102v-64q0 -102 -62 -102h-678q-59 0 -71 61l-43 228h-498l-123 -250q-23 -43 -94 -43h-76q-125 0 -125 45z M553 559h315l-67 371v170h-8l-58 -168z"/>
<glyph unicode="Ç" horiz-adv-x="1267" d="M92 721q0 729 684 729q150 0 289 -41t139 -102q0 -45 -48 -119t-85 -74q-6 0 -43 16q-106 49 -258 50q-354 0 -354 -464t350 -464q147 0 283 61q45 20 53 21q43 0 82 -70.5t39 -107.5q0 -82 -146.5 -126t-302.5 -46l-14 -56q160 -33 160 -155q0 -205 -244 -205 q-96 0 -182 28.5t-86 73.5t23.5 67.5t42 22.5t78.5 -21.5t108.5 -21.5t48.5 35q0 27 -54.5 50.5t-54.5 47t39 142.5q-279 29 -413 208t-134 521z"/>
<glyph unicode="È" horiz-adv-x="1118" d="M141 82v1270q0 82 82 82h750q61 0 61 -103v-63q0 -102 -61 -103h-516v-297h461q61 0 61 -102v-64q0 -102 -61 -102h-461v-332h518q61 0 61 -102v-64q0 -102 -61 -102h-752q-82 0 -82 82zM356 1884q0 29 133.5 29t163.5 -55q25 -43 49.5 -86t39 -64.5t24.5 -42.5 q20 -35 20 -47q0 -31 -63 -31q-106 0 -160.5 59.5t-119 128t-76 83t-11.5 26.5z"/>
<glyph unicode="É" horiz-adv-x="1118" d="M141 82v1270q0 82 82 82h750q61 0 61 -103v-63q0 -102 -61 -103h-516v-297h461q61 0 61 -102v-64q0 -102 -61 -102h-461v-332h518q61 0 61 -102v-64q0 -102 -61 -102h-752q-82 0 -82 82zM442 1618q0 20 30 65.5t54.5 88.5t48.5 86q31 55 164 55t133 -29q0 -12 -12 -28.5 t-49 -54.5t-51.5 -53t-43 -47t-57.5 -63q-47 -51 -153 -51q-63 0 -64 31z"/>
<glyph unicode="Ê" horiz-adv-x="1118" d="M141 82v1270q0 82 82 82h750q61 0 61 -103v-63q0 -102 -61 -103h-516v-297h461q61 0 61 -102v-64q0 -102 -61 -102h-461v-332h518q61 0 61 -102v-64q0 -102 -61 -102h-752q-82 0 -82 82zM315 1581q0 12 13 31l133 209q25 39 125 39h22q100 0 125 -39l133 -209 q12 -18 13 -31q0 -20 -41 -20h-45q-106 0 -140 49l-57 82l-57 -80q-37 -51 -138 -51h-45q-41 0 -41 20z"/>
<glyph unicode="Ë" horiz-adv-x="1118" d="M141 82v1270q0 82 82 82h750q61 0 61 -103v-63q0 -102 -61 -103h-516v-297h461q61 0 61 -102v-64q0 -102 -61 -102h-461v-332h518q61 0 61 -102v-64q0 -102 -61 -102h-752q-82 0 -82 82zM291 1618v123q0 66 123 65.5t123 -65.5v-123q0 -66 -123 -66t-123 66zM659 1618 v123q0 66 123 65.5t123 -65.5v-123q0 -66 -123 -66t-123 66z"/>
<glyph unicode="Ì" horiz-adv-x="577" d="M55 1884q0 29 133.5 29t163.5 -55q25 -43 49.5 -86t39 -64.5t26.5 -42.5q18 -35 18 -47q0 -31 -63 -31q-106 0 -160.5 59.5t-119 128t-76 83t-11.5 26.5zM129 61v1311q0 68 123 68h72q123 0 122 -68v-1311q0 -68 -122 -67h-72q-123 -1 -123 67z"/>
<glyph unicode="Í" horiz-adv-x="577" d="M129 61v1311q0 68 123 68h72q123 0 122 -68v-1311q0 -68 -122 -67h-72q-123 -1 -123 67zM141 1618q0 20 30 65.5t54.5 88.5t48.5 86q31 55 164 55t133 -29q0 -12 -12 -28.5t-49 -54.5t-51.5 -53t-43 -47t-57.5 -63q-47 -51 -153 -51q-63 0 -64 31z"/>
<glyph unicode="Î" horiz-adv-x="577" d="M14 1581q0 12 13 31l133 209q25 39 125 39h22q100 0 125 -39l133 -209q12 -18 13 -31q0 -20 -41 -20h-45q-106 0 -140 49l-57 82l-57 -80q-37 -51 -138 -51h-45q-41 0 -41 20zM129 61v1311q0 68 123 68h72q123 0 122 -68v-1311q0 -68 -122 -67h-72q-123 -1 -123 67z"/>
<glyph unicode="Ï" horiz-adv-x="577" d="M-10 1618v123q0 66 123 65.5t123 -65.5v-123q0 -66 -123 -66t-123 66zM129 61v1311q0 68 123 68h72q123 0 122 -68v-1311q0 -68 -122 -67h-72q-123 -1 -123 67zM358 1618v123q0 66 123 65.5t123 -65.5v-123q0 -66 -123 -66t-123 66z"/>
<glyph unicode="Ð" horiz-adv-x="1425" d="M25 698v62q0 102 61 102h59v490q0 82 82 82h459q317 0 486 -185.5t169 -531.5t-168.5 -531.5t-486.5 -185.5h-459q-82 0 -82 82v514h-59q-61 0 -61 102zM463 268h223q164 0 248 115t84 334t-84 333.5t-248 114.5h-223v-303h121q61 0 61 -102v-62q0 -102 -61 -102h-121 v-328z"/>
<glyph unicode="Ñ" horiz-adv-x="1472" d="M141 61v1311q0 66 123 66h88q98 0 135 -56l539 -829v819q0 66 123 66h59q123 0 123 -66v-1311q0 -66 -123 -65h-78q-98 0 -135 55l-549 840v-830q0 -66 -122 -65h-60q-123 -1 -123 65zM410 1703q0 38 68.5 77t139 39t151.5 -20.5t118 -20.5l94 22q31 0 57.5 -29.5 t26.5 -67.5t-68.5 -77t-139.5 -39t-152.5 20.5t-116.5 20.5l-92 -22q-33 0 -59.5 29.5t-26.5 67.5z"/>
<glyph unicode="Ò" horiz-adv-x="1497" d="M92 716.5q0 354.5 170 544t487.5 189.5t486.5 -189.5t169 -544t-169 -543.5t-486.5 -189t-487.5 189t-170 543.5zM416 716.5q0 -227.5 85 -346t248.5 -118.5t247.5 118.5t84 346t-84 345.5t-247.5 118t-248.5 -118t-85 -345.5zM506 1884q0 29 133 29t164 -55 q25 -43 49.5 -86t38.5 -64.5t27 -42.5q18 -35 18 -47q-1 -31 -64 -31q-106 0 -160.5 59.5t-119 128t-75.5 83t-11 26.5z"/>
<glyph unicode="Ó" horiz-adv-x="1497" d="M92 716.5q0 354.5 170 544t487.5 189.5t486.5 -189.5t169 -544t-169 -543.5t-486.5 -189t-487.5 189t-170 543.5zM416 716.5q0 -227.5 85 -346t248.5 -118.5t247.5 118.5t84 346t-84 345.5t-247.5 118t-248.5 -118t-85 -345.5zM592 1618q0 20 29.5 65.5t54 88.5t49.5 86 q31 55 164 55t133 -29q0 -12 -12.5 -28.5t-49 -54.5t-51 -53t-43 -47t-57.5 -63q-48 -51 -154 -51q-63 0 -63 31z"/>
<glyph unicode="Ô" horiz-adv-x="1497" d="M92 716.5q0 354.5 170 544t487.5 189.5t486.5 -189.5t169 -544t-169 -543.5t-486.5 -189t-487.5 189t-170 543.5zM416 716.5q0 -227.5 85 -346t248.5 -118.5t247.5 118.5t84 346t-84 345.5t-247.5 118t-248.5 -118t-85 -345.5zM465 1581q0 12 12 31l133 209q25 39 125 39 h23q100 0 125 -39l133 -209q12 -18 12 -31q0 -20 -41 -20h-45q-106 0 -139 49l-58 82l-57 -80q-37 -51 -137 -51h-45q-41 0 -41 20z"/>
<glyph unicode="Õ" horiz-adv-x="1497" d="M92 716.5q0 354.5 170 544t487.5 189.5t486.5 -189.5t169 -544t-169 -543.5t-486.5 -189t-487.5 189t-170 543.5zM416 716.5q0 -227.5 85 -346t248.5 -118.5t247.5 118.5t84 346t-84 345.5t-247.5 118t-248.5 -118t-85 -345.5zM420 1703q0 38 68.5 77t139 39t151.5 -20.5 t118 -20.5l94 22q31 0 57.5 -29.5t26.5 -67.5t-68.5 -77t-139 -39t-152.5 20.5t-117 20.5l-92 -22q-33 0 -59.5 29.5t-26.5 67.5z"/>
<glyph unicode="Ö" horiz-adv-x="1497" d="M92 716.5q0 354.5 170 544t487.5 189.5t486.5 -189.5t169 -544t-169 -543.5t-486.5 -189t-487.5 189t-170 543.5zM416 716.5q0 -227.5 85 -346t248.5 -118.5t247.5 118.5t84 346t-84 345.5t-247.5 118t-248.5 -118t-85 -345.5zM440 1618v123q0 66 123 65.5t123 -65.5 v-123q0 -66 -123 -66t-123 66zM809 1618v123q0 66 123 65.5t123 -65.5v-123q0 -66 -123 -66t-123 66z"/>
<glyph unicode="×" horiz-adv-x="1146" d="M84 151.5q0 24.5 18 43.5l301 301l-301 303q-18 16 -18 41.5t52 78t77 52.5t43 -19l301 -301l303 301q16 18 42 18.5t78 -52t52 -78t-18 -41.5l-301 -303l301 -301q18 -18 18 -43t-52 -77t-77.5 -52t-42.5 18l-303 301l-301 -301q-18 -18 -43 -18t-77 52t-52 76.5z"/>
<glyph unicode="Ø" horiz-adv-x="1497" d="M39 65.5q0 24.5 20 45.5l136 153q-102 176 -103 453q0 354 170 543.5t488 189.5q242 0 397 -113l106 121q20 25 46 25t62 -34t36 -57.5t-21 -43.5l-110 -125q139 -190 139 -525.5t-169 -524.5t-470 -189t-465 151l-119 -135q-23 -25 -47 -25t-60 33t-36 57.5zM416 717 q0 -96 16 -185l516 582q-77 66 -198 66q-164 0 -249 -118t-85 -345zM506 365q84 -113 245.5 -113t245.5 118.5t84 346.5q0 147 -39 254z"/>
<glyph unicode="Ù" horiz-adv-x="1458" d="M135 479v893q0 66 123 66h70q123 0 123 -66v-872q0 -109 77.5 -178.5t200.5 -69.5t202 69.5t79 178.5v872q0 66 123 66h67q123 0 123 -66v-893q0 -236 -155.5 -365.5t-438.5 -129.5t-438.5 129.5t-155.5 365.5zM498 1884q0 29 133 29t164 -55q25 -43 49 -86t38.5 -64.5 t26.5 -42.5q18 -35 19 -47q-1 -31 -64 -31q-106 0 -160.5 59.5t-119 128t-75.5 83t-11 26.5z"/>
<glyph unicode="Ú" horiz-adv-x="1458" d="M135 479v893q0 66 123 66h70q123 0 123 -66v-872q0 -109 77.5 -178.5t200.5 -69.5t202 69.5t79 178.5v872q0 66 123 66h67q123 0 123 -66v-893q0 -236 -155.5 -365.5t-438.5 -129.5t-438.5 129.5t-155.5 365.5zM584 1618q0 20 29.5 65.5t54 88.5t49.5 86q31 55 164 55 t133 -29q0 -12 -12.5 -28.5t-49.5 -54.5t-51 -53t-43 -47t-57 -63q-48 -51 -154 -51q-63 0 -63 31z"/>
<glyph unicode="Û" horiz-adv-x="1458" d="M135 479v893q0 66 123 66h70q123 0 123 -66v-872q0 -109 77.5 -178.5t200.5 -69.5t202 69.5t79 178.5v872q0 66 123 66h67q123 0 123 -66v-893q0 -236 -155.5 -365.5t-438.5 -129.5t-438.5 129.5t-155.5 365.5zM457 1581q0 12 12 31l133 209q25 39 125 39h23 q100 0 124 -39l134 -209q12 -18 12 -31q0 -20 -41 -20h-45q-106 0 -139 49l-58 82l-57 -80q-37 -51 -137 -51h-45q-41 0 -41 20z"/>
<glyph unicode="Ü" horiz-adv-x="1458" d="M135 479v893q0 66 123 66h70q123 0 123 -66v-872q0 -109 77.5 -178.5t200.5 -69.5t202 69.5t79 178.5v872q0 66 123 66h67q123 0 123 -66v-893q0 -236 -155.5 -365.5t-438.5 -129.5t-438.5 129.5t-155.5 365.5zM432 1618v123q0 66 123 65.5t123 -65.5v-123 q0 -66 -123 -66t-123 66zM801 1618v123q0 66 123 65.5t123 -65.5v-123q0 -66 -123 -66t-123 66z"/>
<glyph unicode="Ý" horiz-adv-x="1144" d="M-12 1397q0 41 131 41h88q100 0 123 -39l250 -438l251 438q23 39 123 39h74q129 0 129 -41q0 -20 -18 -51l-408 -664v-621q0 -66 -123 -65h-69q-123 -1 -123 65v627l-408 658q-20 35 -20 51zM412 1618q0 20 29.5 65.5t54 88.5t49.5 86q31 55 164 55t133 -29 q0 -12 -12.5 -28.5t-49.5 -54.5t-51 -53t-43 -47t-57 -63q-48 -51 -154 -51q-63 0 -63 31z"/>
<glyph unicode="Þ" horiz-adv-x="1161" d="M139 61v1311q0 66 123 66h70q123 0 123 -66v-158h211q240 0 370 -120q49 -45 83 -130t34 -198t-39 -198t-93 -131t-124 -75q-109 -45 -211 -45h-231v-256q0 -66 -123 -65h-70q-123 -1 -123 65zM455 588h196q74 0 126 39t52 139t-52 140t-126 40h-196v-358z"/>
<glyph unicode="ß" horiz-adv-x="1134" d="M119 61v943q0 203 131 324.5t333.5 121.5t329.5 -98.5t127 -266.5q0 -215 -190 -292v-9q242 -92 242 -354q0 -188 -130.5 -309t-349.5 -121h-47q-61 0 -61 102v35q0 102 61 103h29q86 0 138 52t52 142t-58 146.5t-161 56.5q-61 0 -61 102v35q0 96 55 103q78 2 126 49 t48 111.5t-38 110.5t-111.5 46t-117.5 -46t-44 -120v-967q0 -66 -123 -65h-57q-123 -1 -123 65z"/>
<glyph unicode="à" horiz-adv-x="1116" d="M86 283q0 57 10 104t47 101.5t99 89.5q145 86 432 86v67q0 117 -160 117q-113 0 -219 -49q-37 -16 -43 -17q-31 0 -69 63.5t-38 100.5q0 55 114 98t278 43q440 0 440 -342v-385q0 -127 12 -213l12 -84q0 -33 -82.5 -49t-123.5 -16t-54.5 8t-21.5 27.5t-12.5 31t-9.5 40 t-7 34.5q-37 -66 -127 -110.5t-174 -44.5q-158 0 -230.5 82t-72.5 217zM340 1516q0 29 133 28.5t164 -55.5q25 -43 49.5 -86t38.5 -64.5t25 -42.5q20 -35 20 -47q0 -30 -63 -30q-106 0 -160.5 59t-119.5 128t-76 83t-11 27zM387 313q0 -41 26.5 -65.5t80 -24.5t104.5 37 t76 92v113q-287 0 -287 -152z"/>
<glyph unicode="á" horiz-adv-x="1116" d="M86 283q0 57 10 104t47 101.5t99 89.5q145 86 432 86v67q0 117 -160 117q-113 0 -219 -49q-37 -16 -43 -17q-31 0 -69 63.5t-38 100.5q0 55 114 98t278 43q440 0 440 -342v-385q0 -127 12 -213l12 -84q0 -33 -82.5 -49t-123.5 -16t-54.5 8t-21.5 27.5t-12.5 31t-9.5 40 t-7 34.5q-37 -66 -127 -110.5t-174 -44.5q-158 0 -230.5 82t-72.5 217zM387 313q0 -41 26.5 -65.5t80 -24.5t104.5 37t76 92v113q-287 0 -287 -152zM426 1249q0 20 29.5 65.5t54.5 88.5t49 86q31 55 164 55t133 -28q0 -12 -12.5 -29t-49 -54.5t-51 -53t-43 -47.5t-57.5 -62 q-48 -51 -154 -51q-63 0 -63 30z"/>
<glyph unicode="â" horiz-adv-x="1116" d="M86 283q0 57 10 104t47 101.5t99 89.5q145 86 432 86v67q0 117 -160 117q-113 0 -219 -49q-37 -16 -43 -17q-31 0 -69 63.5t-38 100.5q0 55 114 98t278 43q440 0 440 -342v-385q0 -127 12 -213l12 -84q0 -33 -82.5 -49t-123.5 -16t-54.5 8t-21.5 27.5t-12.5 31t-9.5 40 t-7 34.5q-37 -66 -127 -110.5t-174 -44.5q-158 0 -230.5 82t-72.5 217zM299 1212q0 12 12 31l133 209q25 39 125 39h23q100 0 125 -39l133 -209q12 -18 12 -31q0 -20 -41 -20h-45q-106 0 -139 49l-57 82l-58 -80q-37 -51 -137 -51h-45q-41 0 -41 20zM387 313 q0 -41 26.5 -65.5t80 -24.5t104.5 37t76 92v113q-287 0 -287 -152z"/>
<glyph unicode="ã" horiz-adv-x="1116" d="M86 283q0 57 10 104t47 101.5t99 89.5q145 86 432 86v67q0 117 -160 117q-113 0 -219 -49q-37 -16 -43 -17q-31 0 -69 63.5t-38 100.5q0 55 114 98t278 43q440 0 440 -342v-385q0 -127 12 -213l12 -84q0 -33 -82.5 -49t-123.5 -16t-54.5 8t-21.5 27.5t-12.5 31t-9.5 40 t-7 34.5q-37 -66 -127 -110.5t-174 -44.5q-158 0 -230.5 82t-72.5 217zM254 1334q0 38 68.5 77t139 39t151.5 -20.5t118 -20.5l94 23q31 0 57.5 -30t26.5 -68t-68.5 -76.5t-139 -38.5t-152.5 20.5t-117 20.5l-92 -23q-33 0 -59.5 29.5t-26.5 67.5zM387 313q0 -41 26.5 -65.5 t80 -24.5t104.5 37t76 92v113q-287 0 -287 -152z"/>
<glyph unicode="ä" horiz-adv-x="1116" d="M86 283q0 57 10 104t47 101.5t99 89.5q145 86 432 86v67q0 117 -160 117q-113 0 -219 -49q-37 -16 -43 -17q-31 0 -69 63.5t-38 100.5q0 55 114 98t278 43q440 0 440 -342v-385q0 -127 12 -213l12 -84q0 -33 -82.5 -49t-123.5 -16t-54.5 8t-21.5 27.5t-12.5 31t-9.5 40 t-7 34.5q-37 -66 -127 -110.5t-174 -44.5q-158 0 -230.5 82t-72.5 217zM274 1249v123q0 66 123 66t123 -66v-123q0 -65 -123 -65t-123 65zM387 313q0 -41 26.5 -65.5t80 -24.5t104.5 37t76 92v113q-287 0 -287 -152zM643 1249v123q0 66 123 66t123 -66v-123q0 -65 -123 -65 t-123 65z"/>
<glyph unicode="å" horiz-adv-x="1116" d="M86 283q0 57 10 104t47 101.5t99 89.5q145 86 432 86v67q0 117 -160 117q-113 0 -219 -49q-37 -16 -43 -17q-31 0 -69 63.5t-38 100.5q0 55 114 98t278 43q440 0 440 -342v-385q0 -127 12 -213l12 -84q0 -33 -82.5 -49t-123.5 -16t-54.5 8t-21.5 27.5t-12.5 31t-9.5 40 t-7 34.5q-37 -66 -127 -110.5t-174 -44.5q-158 0 -230.5 82t-72.5 217zM379 1329q0 86 58.5 145.5t144.5 59.5t145 -59.5t59 -145.5t-59 -144.5t-145 -58.5t-144.5 58.5t-58.5 144.5zM387 313q0 -41 26.5 -65.5t80 -24.5t104.5 37t76 92v113q-287 0 -287 -152zM508 1327 q0 -31 21.5 -52.5t52 -21.5t53 21.5t22.5 52.5t-22.5 53.5t-53 22.5t-52 -22.5t-21.5 -53.5z"/>
<glyph unicode="æ" horiz-adv-x="1697" d="M84 283q0 57 10 103t47 99.5t97 89.5q141 86 428 87q8 72 30 131q-43 55 -184 55q-76 0 -167 -33t-95 -33q-31 0 -69 63.5t-38 100.5q0 55 114 98t306.5 43t300.5 -73q119 74 291 73q229 0 335.5 -139t106.5 -368q0 -27 -39.5 -74t-60.5 -47h-522q0 -125 65.5 -180.5 t154.5 -55.5t173 32t86 32q31 0 69 -60.5t38 -95.5q0 -68 -128 -107.5t-241 -39.5q-260 0 -399 139q-49 -49 -146.5 -94t-240 -45t-232.5 84t-90 215zM385 313q0 -41 26.5 -65.5t80 -24.5t108.5 25.5t84 70.5q-18 66 -25 142q-274 -3 -274 -148zM971 662h332q0 88 -40 137 t-108 49q-156 0 -184 -186z"/>
<glyph unicode="ç" horiz-adv-x="993" d="M86 528q0 279 128 419t398 140q125 0 232.5 -37.5t107.5 -103.5q0 -31 -42 -94.5t-66 -63.5q-8 0 -37 15q-90 45 -194.5 45t-160 -76t-55.5 -235.5t52.5 -236.5t160 -77t207.5 47q33 12 37 13q31 0 69 -60.5t38 -95.5q0 -68 -111 -101.5t-223 -41.5l-13 -47 q160 -33 160 -156q0 -205 -244 -205q-96 0 -182 28.5t-86 74t23.5 68t42 22.5t79 -21.5t108.5 -21.5t48 34q0 27 -54 50.5t-54 47t37 132.5q-406 51 -406 538z"/>
<glyph unicode="è" horiz-adv-x="1103" d="M86 544.5q0 272.5 132 407.5t362.5 135t338 -147t107.5 -381q0 -25 -42 -73t-62 -48h-523q10 -117 69.5 -166t152 -49t176.5 32t86 32q31 0 68.5 -60.5t37.5 -95.5q0 -68 -128 -107.5t-240 -39.5q-271 0 -403 144t-132 416.5zM332 1516q0 29 133 28.5t164 -55.5 q25 -43 49 -86t38.5 -64.5t24.5 -42.5q20 -35 21 -47q-1 -30 -64 -30q-106 0 -160.5 59t-119 128t-75.5 83t-11 27zM399 641h332q0 94 -37 150.5t-110 56.5q-152 0 -185 -207z"/>
<glyph unicode="é" horiz-adv-x="1103" d="M86 544.5q0 272.5 132 407.5t362.5 135t338 -147t107.5 -381q0 -25 -42 -73t-62 -48h-523q10 -117 69.5 -166t152 -49t176.5 32t86 32q31 0 68.5 -60.5t37.5 -95.5q0 -68 -128 -107.5t-240 -39.5q-271 0 -403 144t-132 416.5zM399 641h332q0 94 -37 150.5t-110 56.5 q-152 0 -185 -207zM418 1249q0 20 29.5 65.5t54 88.5t49.5 86q31 55 164 55t133 -28q0 -12 -12.5 -29t-49 -54.5t-51 -53t-43 -47.5t-57.5 -62q-48 -51 -154 -51q-63 0 -63 30z"/>
<glyph unicode="ê" horiz-adv-x="1103" d="M86 544.5q0 272.5 132 407.5t362.5 135t338 -147t107.5 -381q0 -25 -42 -73t-62 -48h-523q10 -117 69.5 -166t152 -49t176.5 32t86 32q31 0 68.5 -60.5t37.5 -95.5q0 -68 -128 -107.5t-240 -39.5q-271 0 -403 144t-132 416.5zM291 1212q0 12 12 31l133 209q25 39 125 39 h23q100 0 125 -39l133 -209q12 -18 12 -31q0 -20 -41 -20h-45q-106 0 -139 49l-58 82l-57 -80q-37 -51 -137 -51h-45q-41 0 -41 20zM399 641h332q0 94 -37 150.5t-110 56.5q-152 0 -185 -207z"/>
<glyph unicode="ë" horiz-adv-x="1103" d="M86 544.5q0 272.5 132 407.5t362.5 135t338 -147t107.5 -381q0 -25 -42 -73t-62 -48h-523q10 -117 69.5 -166t152 -49t176.5 32t86 32q31 0 68.5 -60.5t37.5 -95.5q0 -68 -128 -107.5t-240 -39.5q-271 0 -403 144t-132 416.5zM266 1249v123q0 66 123 66t123 -66v-123 q0 -65 -123 -65t-123 65zM399 641h332q0 94 -37 150.5t-110 56.5q-152 0 -185 -207zM635 1249v123q0 66 123 66t123 -66v-123q0 -65 -123 -65t-123 65z"/>
<glyph unicode="ì" horiz-adv-x="542" d="M31 1516q0 29 133 28.5t164 -55.5q25 -43 49 -86t38.5 -64.5t26.5 -42.5q18 -35 19 -47q-1 -30 -64 -30q-106 0 -160.5 59t-119 128t-75.5 83t-11 27zM121 61v949q0 66 123 65h57q123 0 123 -65v-949q0 -66 -123 -65h-57q-123 -1 -123 65z"/>
<glyph unicode="í" horiz-adv-x="542" d="M117 1249q0 20 29.5 65.5t54 88.5t49.5 86q31 55 164 55t133 -28q0 -12 -12.5 -29t-49 -54.5t-51 -53t-43.5 -47.5t-57 -62q-48 -51 -154 -51q-63 0 -63 30zM121 61v949q0 66 123 65h57q123 0 123 -65v-949q0 -66 -123 -65h-57q-123 -1 -123 65z"/>
<glyph unicode="î" horiz-adv-x="542" d="M-10 1212q0 12 12 31l133 209q25 39 125 39h23q100 0 125 -39l133 -209q12 -18 12 -31q0 -20 -41 -20h-45q-106 0 -139 49l-58 82l-57 -80q-37 -51 -137 -51h-45q-41 0 -41 20zM121 61v949q0 66 123 65h57q123 0 123 -65v-949q0 -66 -123 -65h-57q-123 -1 -123 65z"/>
<glyph unicode="ï" horiz-adv-x="542" d="M-35 1249v123q0 66 123 66t123 -66v-123q0 -65 -123 -65t-123 65zM121 61v949q0 66 123 65h57q123 0 123 -65v-949q0 -66 -123 -65h-57q-123 -1 -123 65zM334 1249v123q0 66 123 66t123 -66v-123q0 -65 -123 -65t-123 65z"/>
<glyph unicode="ð" horiz-adv-x="1165" d="M86 536.5q0 268.5 127 409.5t371 141q39 0 104 -8q-25 55 -65 127q-113 -16 -134.5 -16t-46 26.5t-24.5 59.5q0 27 43 33l88 12q-8 10 -31 37q-47 55 -47 67q0 18 39 25l127 14q49 0 80 -24q27 -20 80 -86q135 18 150.5 18t40 -27.5t24.5 -58.5q0 -27 -43 -33l-95 -12 q86 -131 145.5 -320.5t59.5 -383.5q0 -268 -126 -410.5t-369.5 -142.5t-370.5 142t-127 410.5zM393 535.5q0 -312.5 189.5 -312.5t189.5 312.5t-189.5 312.5t-189.5 -312.5z"/>
<glyph unicode="ñ" horiz-adv-x="1140" d="M102 999q0 33 83 49.5t124 16.5t54.5 -8t21.5 -25.5t12 -29t9.5 -38t7.5 -32.5q49 66 131 110.5t174 44.5q154 0 227.5 -80.5t73.5 -250.5v-695q0 -66 -123 -65h-57q-123 0 -123 65v650q0 127 -123 127q-102 0 -164 -119v-658q0 -66 -123 -65h-57q-123 -1 -123 65v650 q0 154 -12.5 215t-12.5 73zM258 1334q0 38 68.5 77t139.5 39t151.5 -20.5t117.5 -20.5l94 23q31 0 57.5 -30t26.5 -68t-68.5 -76.5t-139 -38.5t-152.5 20.5t-117 20.5l-92 -23q-33 0 -59.5 29.5t-26.5 67.5z"/>
<glyph unicode="ò" horiz-adv-x="1165" d="M86 536.5q0 268.5 127 409.5t370.5 141t369.5 -141t126 -409.5t-126 -410.5t-369.5 -142t-370.5 142t-127 410.5zM340 1516q0 29 133 28.5t164 -55.5q25 -43 49.5 -86t38.5 -64.5t25 -42.5q20 -35 20 -47q0 -30 -63 -30q-106 0 -160.5 59t-119.5 128t-76 83t-11 27z M393 535.5q0 -312.5 189.5 -312.5t189.5 312.5t-189.5 312.5t-189.5 -312.5z"/>
<glyph unicode="ó" horiz-adv-x="1165" d="M86 536.5q0 268.5 127 409.5t370.5 141t369.5 -141t126 -409.5t-126 -410.5t-369.5 -142t-370.5 142t-127 410.5zM393 535.5q0 -312.5 189.5 -312.5t189.5 312.5t-189.5 312.5t-189.5 -312.5zM426 1249q0 20 29.5 65.5t54.5 88.5t49 86q31 55 164 55t133 -28 q0 -12 -12.5 -29t-49 -54.5t-51 -53t-43 -47.5t-57.5 -62q-48 -51 -154 -51q-63 0 -63 30z"/>
<glyph unicode="ô" horiz-adv-x="1165" d="M86 536.5q0 268.5 127 409.5t370.5 141t369.5 -141t126 -409.5t-126 -410.5t-369.5 -142t-370.5 142t-127 410.5zM299 1212q0 12 12 31l133 209q25 39 125 39h23q100 0 125 -39l133 -209q12 -18 12 -31q0 -20 -41 -20h-45q-106 0 -139 49l-57 82l-58 -80 q-37 -51 -137 -51h-45q-41 0 -41 20zM393 535.5q0 -312.5 189.5 -312.5t189.5 312.5t-189.5 312.5t-189.5 -312.5z"/>
<glyph unicode="õ" horiz-adv-x="1165" d="M86 536.5q0 268.5 127 409.5t370.5 141t369.5 -141t126 -409.5t-126 -410.5t-369.5 -142t-370.5 142t-127 410.5zM254 1334q0 38 68.5 77t139 39t151.5 -20.5t118 -20.5l94 23q31 0 57.5 -30t26.5 -68t-68.5 -76.5t-139 -38.5t-152.5 20.5t-117 20.5l-92 -23 q-33 0 -59.5 29.5t-26.5 67.5zM393 535.5q0 -312.5 189.5 -312.5t189.5 312.5t-189.5 312.5t-189.5 -312.5z"/>
<glyph unicode="ö" horiz-adv-x="1165" d="M86 536.5q0 268.5 127 409.5t370.5 141t369.5 -141t126 -409.5t-126 -410.5t-369.5 -142t-370.5 142t-127 410.5zM274 1249v123q0 66 123 66t123 -66v-123q0 -65 -123 -65t-123 65zM393 535.5q0 -312.5 189.5 -312.5t189.5 312.5t-189.5 312.5t-189.5 -312.5zM643 1249 v123q0 66 123 66t123 -66v-123q0 -65 -123 -65t-123 65z"/>
<glyph unicode="÷" horiz-adv-x="1146" d="M57 455v14q0 102 62 102h909q61 0 62 -102v-14q0 -102 -62 -103h-909q-61 0 -62 103zM438 61v146q0 66 123 65h23q123 0 123 -65v-146q0 -66 -123 -65h-23q-123 -1 -123 65zM438 717v145q0 66 123 66h23q123 0 123 -66v-145q0 -66 -123 -66h-23q-123 0 -123 66z"/>
<glyph unicode="ø" horiz-adv-x="1165" d="M80 61.5q0 24.5 20 47.5l68 77q-82 133 -82 351q0 268 127 409t371 141q176 0 293 -75l65 75q23 27 46.5 27t60 -32.5t36.5 -54t-20 -46.5l-74 -86q88 -139 88 -358q0 -268 -126 -410.5t-369 -142.5q-186 0 -305 84l-58 -66q-20 -27 -44.5 -27t-60.5 31t-36 55.5z M393 537q0 -31 4 -84l301 352q-42 43 -114 43q-190 0 -191 -311zM459 276q47 -53 125 -53q188 0 188 314q0 53 -6 98z"/>
<glyph unicode="ù" horiz-adv-x="1140" d="M121 315v695q0 66 123 65h57q123 0 123 -65v-650q0 -127 123 -127q102 0 164 119v658q0 66 123 65h57q123 0 123 -65v-650q0 -127 12 -213l12 -84q0 -33 -83 -49t-123.5 -16t-54 8t-21.5 27.5t-12.5 31t-9.5 40t-7 34.5q-49 -66 -130 -110.5t-175 -44.5 q-154 0 -227.5 80.5t-73.5 250.5zM344 1516q0 29 133 28.5t164 -55.5q25 -43 49.5 -86t38.5 -64.5t25 -42.5q20 -35 20 -47q0 -30 -63 -30q-106 0 -160.5 59t-119 128t-76 83t-11.5 27z"/>
<glyph unicode="ú" horiz-adv-x="1140" d="M121 315v695q0 66 123 65h57q123 0 123 -65v-650q0 -127 123 -127q102 0 164 119v658q0 66 123 65h57q123 0 123 -65v-650q0 -127 12 -213l12 -84q0 -33 -83 -49t-123.5 -16t-54 8t-21.5 27.5t-12.5 31t-9.5 40t-7 34.5q-49 -66 -130 -110.5t-175 -44.5 q-154 0 -227.5 80.5t-73.5 250.5zM430 1249q0 20 29.5 65.5t54.5 88.5t49 86q31 55 164 55t133 -28q0 -12 -12 -29t-49 -54.5t-51.5 -53t-43 -47.5t-57.5 -62q-47 -51 -153 -51q-63 0 -64 30z"/>
<glyph unicode="û" horiz-adv-x="1140" d="M121 315v695q0 66 123 65h57q123 0 123 -65v-650q0 -127 123 -127q102 0 164 119v658q0 66 123 65h57q123 0 123 -65v-650q0 -127 12 -213l12 -84q0 -33 -83 -49t-123.5 -16t-54 8t-21.5 27.5t-12.5 31t-9.5 40t-7 34.5q-49 -66 -130 -110.5t-175 -44.5 q-154 0 -227.5 80.5t-73.5 250.5zM303 1212q0 12 12 31l134 209q25 39 124 39h23q100 0 125 -39l133 -209q12 -18 12 -31q0 -20 -41 -20h-45q-106 0 -139 49l-57 82l-58 -80q-37 -51 -137 -51h-45q-41 0 -41 20z"/>
<glyph unicode="ü" horiz-adv-x="1140" d="M121 315v695q0 66 123 65h57q123 0 123 -65v-650q0 -127 123 -127q102 0 164 119v658q0 66 123 65h57q123 0 123 -65v-650q0 -127 12 -213l12 -84q0 -33 -83 -49t-123.5 -16t-54 8t-21.5 27.5t-12.5 31t-9.5 40t-7 34.5q-49 -66 -130 -110.5t-175 -44.5 q-154 0 -227.5 80.5t-73.5 250.5zM279 1249v123q0 66 122.5 66t122.5 -66v-123q0 -65 -122.5 -65t-122.5 65zM647 1249v123q0 66 123 66t123 -66v-123q0 -65 -123 -65t-123 65z"/>
<glyph unicode="ý" horiz-adv-x="985" d="M20 1030q0 45 125 45h66q100 0 115 -43l120 -379q18 -57 58 -247h8q41 197 57 247l121 379q14 43 115 43h49q123 0 123 -45q0 -14 -6 -37l-469 -1372q-16 -43 -115 -43h-35q-123 0 -123 43q0 18 9 37l129 342l-338 993q-9 29 -9 37zM346 1249q0 20 30 65.5t54.5 88.5 t48.5 86q31 55 164 55t133 -28q0 -12 -12 -29t-49 -54.5t-51.5 -53t-43 -47.5t-57.5 -62q-47 -51 -153 -51q-63 0 -64 30z"/>
<glyph unicode="þ" horiz-adv-x="1167" d="M133 -356v1835q0 66 123 65h57q123 0 123 -65v-516q86 125 257 124.5t277.5 -146.5t106.5 -403t-113.5 -405.5t-318.5 -148.5q-121 0 -209 63v-403q0 -66 -123 -66h-57q-123 0 -123 66zM436 262q70 -39 144 -39q190 0 190 308.5t-166 308.5q-98 0 -168 -121v-457z"/>
<glyph unicode="ÿ" horiz-adv-x="985" d="M20 1030q0 45 125 45h66q100 0 115 -43l120 -379q18 -57 58 -247h8q41 197 57 247l121 379q14 43 115 43h49q123 0 123 -45q0 -14 -6 -37l-469 -1372q-16 -43 -115 -43h-35q-123 0 -123 43q0 18 9 37l129 342l-338 993q-9 29 -9 37zM195 1249v123q0 66 122.5 66 t122.5 -66v-123q0 -65 -122.5 -65t-122.5 65zM563 1249v123q0 66 123 66t123 -66v-123q0 -65 -123 -65t-123 65z"/>
<glyph unicode="Œ" horiz-adv-x="2091" d="M92 716.5q0 354.5 165 544t472 189.5q207 0 356 -94q0 78 82 78h750q61 0 61 -103v-63q0 -102 -61 -103h-516v-297h461q61 0 61 -102v-64q0 -102 -61 -102h-461v-332h518q61 0 61 -102v-64q0 -102 -61 -102h-752q-80 0 -82 76q-152 -92 -356 -92q-307 0 -472 189 t-165 543.5zM416 716.5q0 -227.5 85 -346t248.5 -118.5t247.5 118.5t84 346t-84 345.5t-247.5 118t-248.5 -118t-85 -345.5z"/>
<glyph unicode="œ" horiz-adv-x="1783" d="M84 536.5q0 268.5 127 409.5t352 141t361 -124q137 125 355 124.5t325.5 -147.5t107.5 -381q0 -25 -42 -73t-62 -48h-523q10 -117 69.5 -166t152 -49t176.5 32t86 32q31 0 68.5 -60.5t37.5 -95.5q0 -68 -128 -107.5t-240 -39.5q-233 0 -377 127q-137 -127 -364.5 -127 t-354.5 142t-127 410.5zM391 535.5q0 -312.5 189.5 -312.5t189.5 312.5t-189.5 312.5t-189.5 -312.5zM1085 641h332q0 94 -37 150.5t-110 56.5q-152 0 -185 -207z"/>
<glyph unicode="Ÿ" horiz-adv-x="1144" d="M-12 1397q0 41 131 41h88q100 0 123 -39l250 -438l251 438q23 39 123 39h74q129 0 129 -41q0 -20 -18 -51l-408 -664v-621q0 -66 -123 -65h-69q-123 -1 -123 65v627l-408 658q-20 35 -20 51zM260 1618v123q0 66 123 65.5t123 -65.5v-123q0 -66 -123 -66t-123 66z M629 1618v123q0 66 122.5 65.5t122.5 -65.5v-123q0 -66 -122.5 -66t-122.5 66z"/>
<glyph unicode="ˆ" d="M39 1212q0 12 12 31l133 209q25 39 125 39h23q100 0 125 -39l133 -209q12 -18 12 -31q0 -20 -41 -20h-45q-106 0 -139 49l-58 82l-57 -80q-37 -51 -137 -51h-45q-41 0 -41 20z"/>
<glyph unicode="˜" horiz-adv-x="747" d="M47 1334q0 38 68.5 77t139.5 39t151.5 -20.5t117.5 -20.5l94 23q31 0 57.5 -30t26.5 -68t-68.5 -76.5t-139 -38.5t-152.5 20.5t-117 20.5l-92 -23q-33 0 -59.5 29.5t-26.5 67.5z"/>
<glyph unicode=" " horiz-adv-x="956"/>
<glyph unicode=" " horiz-adv-x="1913"/>
<glyph unicode=" " horiz-adv-x="956"/>
<glyph unicode=" " horiz-adv-x="1913"/>
<glyph unicode=" " horiz-adv-x="637"/>
<glyph unicode=" " horiz-adv-x="478"/>
<glyph unicode=" " horiz-adv-x="318"/>
<glyph unicode=" " horiz-adv-x="318"/>
<glyph unicode=" " horiz-adv-x="239"/>
<glyph unicode=" " horiz-adv-x="382"/>
<glyph unicode=" " horiz-adv-x="106"/>
<glyph unicode="‐" d="M57 537v14q0 102 62 102h418q61 0 61 -102v-14q0 -102 -61 -103h-418q-61 0 -62 103z"/>
<glyph unicode="‑" d="M57 537v14q0 102 62 102h418q61 0 61 -102v-14q0 -102 -61 -103h-418q-61 0 -62 103z"/>
<glyph unicode="‒" d="M57 537v14q0 102 62 102h418q61 0 61 -102v-14q0 -102 -61 -103h-418q-61 0 -62 103z"/>
<glyph unicode="–" horiz-adv-x="1024" d="M0 537v14q0 102 61 102h902q61 0 61 -102v-14q0 -102 -61 -103h-902q-61 0 -61 103z"/>
<glyph unicode="—" horiz-adv-x="2048" d="M0 537v14q0 102 61 102h1926q61 0 61 -102v-14q0 -102 -61 -103h-1926q-61 0 -61 103z"/>
<glyph unicode="‘" horiz-adv-x="434" d="M23 1069q0 109 52 224.5t118.5 186t105.5 70.5t68.5 -11t29.5 -32.5t-22 -72.5q-68 -158 -68 -365q0 -90 -123 -90h-39q-123 0 -122 90z"/>
<glyph unicode="’" horiz-adv-x="434" d="M39 1022.5q0 21.5 22 75.5q68 156 68 362q0 90 123 90h39q123 0 123 -90q0 -109 -52.5 -224.5t-119 -186t-105.5 -70.5t-68.5 11t-29.5 32.5z"/>
<glyph unicode="‚" horiz-adv-x="405" d="M25 -211.5q0 21.5 22 72.5q68 158 68 364q0 90 123 90h38q123 0 123 -90q0 -109 -52 -224.5t-118.5 -186t-105.5 -70.5t-68.5 11.5t-29.5 33z"/>
<glyph unicode="“" horiz-adv-x="716" d="M-18 1069q0 109 52 224.5t118.5 186t105.5 70.5t68.5 -11t29.5 -32.5t-22 -72.5q-68 -158 -68 -365q0 -90 -123 -90h-39q-123 0 -122 90zM346 1069q0 109 52.5 224.5t119 186t105.5 70.5t68.5 -11t29.5 -32.5t-23 -72.5q-68 -158 -67 -365q0 -90 -123 -90h-39 q-123 0 -123 90z"/>
<glyph unicode="”" horiz-adv-x="716" d="M0 1022.5q0 21.5 23 75.5q68 156 67 362q0 90 123 90h39q123 0 123 -90q0 -109 -52.5 -224.5t-119 -186t-105.5 -70.5t-68.5 11t-29.5 32.5zM365 1022.5q0 21.5 22 75.5q68 156 68 362q0 90 123 90h38q123 0 123 -90q0 -109 -52 -224.5t-118.5 -186t-105.5 -70.5 t-68.5 11t-29.5 32.5z"/>
<glyph unicode="„" horiz-adv-x="688" d="M-16 -211.5q0 21.5 22 72.5q68 158 68 364q0 90 123 90h39q123 0 122 -90q0 -109 -52 -224.5t-118.5 -186t-105.5 -70.5t-68.5 11.5t-29.5 33zM348 -211.5q0 21.5 23 72.5q68 158 67 364q0 90 123 90h39q123 0 123 -90q0 -109 -52.5 -224.5t-119 -186t-105 -70.5 t-68.5 11.5t-30 33z"/>
<glyph unicode="•" horiz-adv-x="688" d="M74 667.5q0 112.5 78.5 192.5t191.5 80t192.5 -80t79.5 -192.5t-79.5 -191.5t-192.5 -79t-191.5 79t-78.5 191.5z"/>
<glyph unicode="…" horiz-adv-x="1263" d="M49 61v189q0 66 123 65h66q123 0 122 -65v-189q0 -66 -122 -65h-66q-123 -1 -123 65zM479 61v189q0 66 123 65h66q123 0 123 -65v-189q0 -66 -123 -65h-66q-123 -1 -123 65zM909 61v189q0 66 123 65h66q123 0 123 -65v-189q0 -66 -123 -65h-66q-123 -1 -123 65z"/>
<glyph unicode=" " horiz-adv-x="382"/>
<glyph unicode="‹" horiz-adv-x="614" d="M55 528.5q0 51.5 33 89.5l260 314q27 29 57.5 29t74.5 -34t44 -60.5t-18 -51.5l-225 -287l225 -286q18 -25 18 -51.5t-43 -61.5t-73.5 -35t-59.5 31l-260 313q-33 39 -33 90.5z"/>
<glyph unicode="›" horiz-adv-x="614" d="M82 190.5q0 26.5 18 51.5l226 286l-226 287q-18 25 -18 51.5t44 60.5t74.5 34t57.5 -29l260 -314q33 -39 33 -90t-33 -90l-260 -313q-29 -31 -59.5 -31t-73.5 35t-43 61.5z"/>
<glyph unicode=" " horiz-adv-x="478"/>
<glyph unicode="€" horiz-adv-x="1228" d="M0 547v14q0 70 61 70h60q-2 29 -2 81t2 74h-60q-61 0 -61 70v14q0 70 61 70h74q88 510 621 510q135 0 261 -41t126 -102q0 -45 -48 -119t-85 -74q-4 0 -35 16q-96 49 -225 50q-227 0 -289 -240h491q61 0 62 -70v-14q0 -70 -62 -70h-512q-2 -23 -2 -76t2 -79h512 q61 0 62 -70v-14q0 -70 -62 -70h-485q66 -225 278 -225q129 0 250 61q39 20 45 21q45 0 83 -70.5t38 -107.5q0 -82 -138 -127t-278 -45q-522 0 -608 493h-76q-61 0 -61 70z"/>
<glyph unicode="™" horiz-adv-x="1581" d="M47 1339v37q0 57 35 58h545q35 0 35 -58v-37q0 -57 -35 -57h-183v-620q0 -37 -69 -37h-41q-70 0 -70 37v620h-182q-35 0 -35 57zM709 662v737q0 37 69 37h62q55 0 71 -31l203 -361l205 361q20 31 74 31h59q70 0 70 -37v-737q0 -37 -70 -37h-33q-70 0 -69 37v477l-7 6 l-165 -303q-10 -23 -45 -23h-35q-33 0 -45 23l-168 303l-4 -6v-477q0 -37 -70 -37h-33q-69 0 -69 37z"/>
<glyph unicode="" horiz-adv-x="1075" d="M0 0v1075h1075v-1075h-1075z"/>
<glyph unicode="ﬁ" horiz-adv-x="1153" d="M35 934v35q0 102 61 102h37v154q0 332 299 331q205 0 205 -100q0 -27 -18.5 -87t-45.5 -60l-63 8q-74 0 -74 -88v-158h103q61 0 61 -102v-35q0 -102 -61 -103h-103v-770q0 -66 -123 -65h-57q-123 0 -123 65v770h-37q-61 0 -61 103zM731 61v949q0 66 123 65h57 q123 0 123 -65v-949q0 -66 -123 -65h-57q-123 -1 -123 65zM731 1313v166q0 66 123 65h57q123 0 123 -65v-166q0 -66 -123 -66h-57q-123 0 -123 66z"/>
<glyph unicode="ﬂ" horiz-adv-x="1210" d="M35 934v35q0 102 61 102h37v154q0 332 299 331q205 0 205 -100q0 -27 -18.5 -87t-45.5 -60l-63 8q-74 0 -74 -88v-158h103q61 0 61 -102v-35q0 -102 -61 -103h-103v-770q0 -66 -123 -65h-57q-123 0 -123 65v770h-37q-61 0 -61 103zM731 315v1164q0 66 123 65h57 q123 0 123 -65v-1168q0 -88 74 -88l55 8q27 0 45.5 -60t18.5 -87q0 -100 -197 -100q-299 0 -299 331z"/>
</font>
</defs>
</svg>
