<?xml version="1.0" standalone="no"?>
<!DOCTYPE svg PUBLIC "-//W3C//DTD SVG 1.1//EN" "http://www.w3.org/Graphics/SVG/1.1/DTD/svg11.dtd" >
<svg xmlns="http://www.w3.org/2000/svg">
<metadata>
This is a custom SVG font generated by IcoMoon.
<iconset grid="20"></iconset>
</metadata>
<defs>
<font id="icomoon" horiz-adv-x="640" >
<font-face units-per-em="640" ascent="608" descent="-32" />
<missing-glyph horiz-adv-x="640" />
<glyph unicode="&#xe000;" d="M 631.359,35.656L 288.463,347.817l 15.959,15.999c 13.059,13.096, 20.117,30.019, 21.199,47.256
	c 0.626,0.281, 1.251,0.57, 1.849,0.901l 64.369,40.251c 8.709,10.245, 8.072,26.418-1.427,35.939L 278.46,600.419
	c-9.494,9.521-25.624,10.164-35.84,1.427l-40.148-64.543c-0.329-0.604-0.619-1.229-0.9-1.859
	c-17.189-1.085-34.063-8.16-47.124-21.254l-60.892-61.064c-13.061-13.098-20.115-30.016-21.199-47.252
	c-0.627-0.281-1.252-0.573-1.853-0.904L 6.139,364.718c-8.714-10.244-8.072-26.415, 1.422-35.935l 111.95-112.253
	c 9.496-9.524, 25.623-10.164, 35.844-1.429l 40.142,64.544c 0.33,0.599, 0.617,1.225, 0.901,1.854c 17.189,1.086, 34.065,8.156, 47.124,21.252
	l 17.683,17.733l 311.326-343.821c 9.023-9.965, 22.938-11.574, 30.921-3.57l 31.473,31.555
	C 642.903,12.652, 641.298,26.605, 631.359,35.656z" />
<glyph unicode="&#xe001;" d="M 546.275,514.274 C 606.714,453.834 640,373.474 640,287.999 C 640,202.524 606.714,122.165 546.275,61.725 C 485.834,1.286 405.475-32 320-32 C 234.525-32 154.166,1.286 93.725,61.725 C 33.286,122.165 0,202.524 0,287.999 C 0,373.474 33.284,453.834 93.725,514.274 C 154.166,574.714 234.525,608 320,608 C 405.475,608 485.834,574.714 546.275,514.274 Z M 517.99,90.009 C 557.401,129.421 583.606,178.514 594.41,231.922 C 585.989,219.525 577.934,214.926 572.945,242.676 C 567.808,287.92 526.253,259.019 500.123,275.089 C 472.62,256.553 410.806,311.127 421.311,249.574 C 437.52,221.81 508.816,286.73 473.279,227.985 C 450.607,186.975 390.378,96.152 398.212,49.074 C 399.201-19.516 328.129,34.771 303.641,57.524 C 287.169,103.099 298.027,182.757 254.955,205.077 C 208.204,207.108 168.077,211.356 149.959,263.621 C 139.055,301.014 161.561,356.68 201.633,365.274 C 260.289,402.127 281.241,322.115 336.251,320.627 C 353.331,338.499 399.886,344.181 403.746,364.221 C 367.653,370.59 449.539,394.57 400.291,408.21 C 373.123,405.015 355.618,380.039 370.061,358.861 C 317.413,346.585 315.726,435.051 265.118,407.148 C 263.831,363.029 182.479,392.844 236.97,401.79 C 255.692,409.97 206.432,433.675 233.045,429.368 C 246.118,430.078 290.127,445.5 278.218,455.869 C 302.724,471.081 323.317,419.437 347.304,457.045 C 364.621,485.961 340.041,491.3 318.335,476.643 C 306.097,490.345 339.941,519.94 369.793,532.729 C 379.741,536.991 389.244,539.314 396.509,538.656 C 411.545,521.286 439.353,518.277 440.808,540.745 C 403.569,558.579 362.51,568 320,568 C 258.986,568 200.956,548.61 152.933,512.756 C 165.839,506.844 173.165,499.483 160.731,490.071 C 151.071,461.287 111.875,422.649 77.466,428.119 C 59.6,397.309 47.834,363.365 42.804,327.789 C 71.624,318.254 78.269,299.382 72.076,293.070 C 57.391,280.265 48.366,262.114 43.716,242.244 C 53.098,184.846 80.074,131.946 122.010,90.009 C 174.895,37.125 245.209,8 320,8 C 394.79,8 465.105,37.125 517.99,90.009 Z" />
<glyph unicode="&#xe002;" d="M 640,228L 520,348L 520,528L 440,528L 440,428L 320,548L0,228L0,208L 80,208L 80,8L 280,8L 280,128L 360,128L 360,8L 560,8L 560,208L 640,208 z" />
<glyph unicode="&#xe003;" d="M0,88L 640,88L 640,8L0,8zM 80,248L 160,248L 160,128L 80,128zM 200,408L 280,408L 280,128L 200,128zM 320,288L 400,288L 400,128L 320,128zM 440,528L 520,528L 520,128L 440,128z" />
<glyph unicode="&#xe004;" d="M 80,48 L 640,48 L 640-32 L 0-32 L 0,608 L 80,608 ZM 180,88 C 146.862,88 120,114.863 120,148 C 120,181.137 146.862,208 180,208 C 181.767,208 183.514,207.907 185.242,207.759 L 249.737,315.25 C 243.588,324.669 240,335.914 240,348.001 C 240,381.139 266.863,408.001 300,408.001 C 333.137,408.001 360,381.139 360,348.001 C 360,335.913 356.413,324.669 350.262,315.25 L 414.757,207.759 C 416.486,207.907 418.233,208 420,208 C 421.335,208 422.655,207.941 423.969,207.856 L 530.441,394.183 C 523.856,403.812 520,415.455 520,428.001 C 520,461.139 546.862,488.001 580,488.001 C 613.138,488.001 640,461.139 640,428.001 C 640,394.864 613.138,368.001 580,368.001 C 578.663,368.001 577.345,368.060 576.031,368.146 L 469.559,181.819 C 476.144,172.19 480,160.546 480,148 C 480,114.863 453.137,88 420,88 C 386.863,88 360,114.863 360,148 C 360,160.088 363.587,171.332 369.736,180.751 L 305.243,288.241 C 303.514,288.093 301.767,288 300,288 C 298.233,288 296.486,288.091 294.757,288.241 L 230.263,180.75 C 236.412,171.332 240,160.088 240,148 C 240,114.863 213.137,88 180,88 Z" />
<glyph unicode="&#xe005;" d="M 180,368L 60,368 c-11,0-20-9-20-20l0-360 c0-11, 9-20, 20-20l 120,0 c 11,0, 20,9, 20,20L 200,348 C 200,359, 191,368, 180,368z M 180,8
		L 60,8 L 60,168 l 120,0 L 180,8 zM 380,448l-120,0 c-11,0-20-9-20-20l0-440 c0-11, 9-20, 20-20l 120,0 c 11,0, 20,9, 20,20L 400,428 C 400,439, 391,448, 380,448z
		 M 380,8l-120,0 L 260,208 l 120,0 L 380,8 zM 580,528l-120,0 c-11,0-20-9-20-20l0-520 c0-11, 9-20, 20-20l 120,0 c 11,0, 20,9, 20,20L 600,508 C 600,519, 591,528, 580,528z M 580,8l-120,0 
		L 460,248 l 120,0 L 580,8 z" />
<glyph unicode="&#xe006;" d="M 600,488L 600,528L 320,448L 40,528L 40,488L 240,408L 240,248L 160-32L 200-32L 320,248L 440-32L 480-32L 400,248L 400,408 	zM 260,548A60,60 13140 1 1 380,548A60,60 13140 1 1 260,548z" />
<glyph unicode="&#xe007;" d="M 600,448L 440,448 L 440,488 c0,22-18,40-40,40L 240,528 c-22.003,0-40-18-40-40l0-40 L 40,448 c-22,0-40-18-40-40l0-360 
	c0-22.001, 17.997-40, 40-40l 560,0 c 22,0, 40,17.999, 40,40L 640,408 C 640,430, 622,448, 600,448z M 240,487.927
	c 0.021,0.025, 0.046,0.051, 0.071,0.073l 159.857,0 c 0.026-0.021, 0.051-0.048, 0.074-0.073L 400.002,448 L 240,448 L 240,487.927 z M 600,288l-80,0 l0-60 
	c0-11.001-9-20-20-20l-40,0 c-11.002,0-20,8.999-20,20l0,60 L 200,288 l0-60 c0-11.001-9-20-20-20l-40,0 c-11.001,0-20,8.999-20,20l0,60 L 40,288 l0,40 l 560,0 
	L 600,288 z" />
<glyph unicode="&#xe029;" d="M 492.507,108.907c-6.587,30.64-53.333,69.76-129.173,80.96l0,27.867 c 22.187,21.52, 43.333,57.040, 43.333,107.147
			C 406.667,385.493, 385.013,434.667, 320,434.667s-86.667-49.173-86.667-109.787c0-50.107, 21.147-85.627, 43.333-107.147l0-27.867 
			c-75.84-11.2-122.587-50.32-129.173-80.96L 146.667,108.907 c0-0.8, 0.293-1.68, 0.533-2.507l 2.373-4.827C 163.173,83.36, 224.88,61.333, 320,61.333
			s 156.827,22.027, 170.453,40.267l 2.373,4.827c 0.24,0.827, 0.533,1.68, 0.533,2.507L 492.507,108.933 zM 625.893,213.973c-6.080,28.32-49.227,64.4-119.227,74.747L 506.667,314.4 c 20.507,19.867, 40,52.667, 40,98.907c0,56-20,101.36-80,101.36
				c-50.080,0-62.453-9.067-69.147-57.573c 32.507-25.253, 50.293-69.493, 50.293-129.707c0-60.773-13.227-93.84-34.48-119.387
				c 26.667,0, 62.48-34.64, 87.44-54.8c 90.080,2.293, 111.333,38.080, 123.227,54l 2.187,4.427c 0.213,0.773, 0.48,1.573, 0.48,2.32L 625.893,213.947 zM 173.333,514.667c-60,0-80-45.36-80-101.36c0-46.24, 19.493-79.040, 40-98.907l0-25.707 c-70-10.347-113.147-46.427-119.227-74.747L 13.333,213.947 
				c0-0.747, 0.267-1.547, 0.48-2.32L 16,207.227c 11.893-15.947, 33.173-51.707, 123.253-54C 164.187,173.36, 200,208, 226.667,208
				c-21.28,25.547-34.48,58.587-34.48,119.387c0,60.213, 17.813,104.453, 50.32,129.707C 235.813,505.6, 223.413,514.667, 173.333,514.667z" />
<glyph unicode="&#xe008;" d="M 459.371,104.641c-11.845,1.867-12.115,34.159-12.115,34.159s 34.805,34.16, 42.39,80.095
	c 20.407,0, 33.009,48.836, 12.603,66.017c 0.851,18.088, 26.23,141.985-102.249,141.985c-128.477,0-103.099-123.897-102.249-141.985
	c-20.409-17.181-7.805-66.017, 12.601-66.017c 7.584-45.935, 42.391-80.095, 42.391-80.095s-0.27-32.291-12.115-34.159
	C 302.474,98.621, 160,36.319, 160-32l 240,0 l 240,0 C 640,36.319, 497.526,98.621, 459.371,104.641zM 215.034,93.744c 27.559,16.969, 61.016,32.693, 88.461,42.14c-9.845,14.020-20.809,33.085-27.706,55.664
	c-9.629,7.854-17.465,19.082-22.499,32.876c-5.041,13.815-6.951,29.282-5.38,43.552c 1.127,10.245, 4.049,19.791, 8.531,28.18
	c-2.719,29.116-4.634,86.271, 32.78,127.957c 14.509,16.166, 32.847,27.788, 54.813,34.804C 340.112,499.393, 319.559,546.899, 240,546.899
	c-128.477,0-103.099-123.897-102.249-141.985c-20.409-17.181-7.805-66.017, 12.601-66.017c 7.584-45.935, 42.391-80.095, 42.391-80.095
	s-0.27-32.291-12.115-34.159C 142.474,218.621,0,156.319,0,88l 205.998,0 C 208.941,89.921, 211.939,91.837, 215.034,93.744z" />
<glyph unicode="&#xe009;" d="M 610-32L 190-32 c-16.569,0-30,13.431-30,30c0,43.039, 18.168,95.127, 48.599,139.339c 25.433,36.949, 56.677,64.763, 90.424,81.006
		c-14.874,13.527-27.684,30.016-37.818,48.826c-16.25,30.164-24.841,65.030-24.841,100.83c0,49.754, 16.378,96.764, 46.116,132.369
		C 313.52,537.532, 355.256,558, 400,558s 86.48-20.467, 117.521-57.631c 29.737-35.605, 46.116-82.614, 46.116-132.369
		c0-35.8-8.59-70.666-24.84-100.83c-10.134-18.81-22.944-35.299-37.819-48.826c 33.746-16.244, 64.991-44.058, 90.424-81.006
		C 621.832,93.127, 640,41.039, 640-2C 640-18.569, 626.569-32, 610-32z M 223.796,28l 352.407,0 
		c-5.766,24.588-17.825,51.49-34.226,75.319c-25.909,37.641-58.235,62.264-91.024,69.329c-13.816,2.978-23.68,15.194-23.68,29.328
		l0,21.433 c0,10.788, 5.791,20.744, 15.169,26.076c 37.174,21.145, 61.195,67.666, 61.195,118.516c0,71.682-46.49,130-103.636,130
		s-103.636-58.318-103.636-130c0-50.85, 24.021-97.37, 61.196-118.516c 9.376-5.334, 15.168-15.289, 15.168-26.076l0-21.433 
		c0-14.134-9.865-26.35-23.68-29.328c-32.789-7.065-65.115-31.688-91.025-69.329C 241.62,79.49, 229.564,52.587, 223.796,28zM 123.196,68l-59.4,0 c 5.768,24.588, 17.824,51.49, 34.225,75.319c 25.91,37.641, 58.236,62.264, 91.025,69.329
		c 13.816,2.978, 23.68,15.194, 23.68,29.328l0,21.433 c0,10.788-5.791,20.744-15.168,26.076c-37.175,21.146-61.196,67.666-61.196,118.516
		c0,71.682, 46.49,130, 103.636,130c 3.909,0, 7.766-0.283, 11.564-0.814c 16.474,18.334, 35.146,33.234, 55.401,44.378
		C 286.219,592.334, 263.526,598, 240,598c-44.744,0-86.48-20.467-117.521-57.631C 92.741,504.764, 76.364,457.754, 76.364,408
		c0-35.8, 8.59-70.666, 24.841-100.83c 10.134-18.81, 22.944-35.297, 37.818-48.826c-33.746-16.244-64.991-44.058-90.424-81.006
		C 18.168,133.127,0,81.039,0,38c0-16.569, 13.431-30, 30-30l 82.741,0 C 113.664,27.391, 117.24,47.633, 123.196,68z" />
<glyph unicode="&#xe039;" d="M 453.333,341.333l-26.667,0 L 426.667,394.667 c0,58.827-47.84,106.667-106.667,106.667S 213.333,453.493, 213.333,394.667l0-53.333 L 186.667,341.333 c-14.667,0-26.667-12-26.667-26.667l0-186.667 c0-14.667, 12-26.667, 26.667-26.667l 266.667,0 c 14.667,0, 26.667,12, 26.667,26.667l0,186.667 
			C 480,329.333, 468,341.333, 453.333,341.333z M 266.667,394.667c0,29.413, 23.92,53.333, 53.333,53.333s 53.333-23.92, 53.333-53.333l0-53.333 l-106.667,0 L 266.667,394.667 z" />
<glyph unicode="&#xe00a;" d="M 640,608 L 640,368 L 553.587,454.412 L 421.087,321.913 L 353.913,389.088 L 486.413,521.588 L 400,608 ZM 153.588,521.588 L 286.087,389.088 L 218.912,321.913 L 86.412,454.412 L 0,368 L 0,608 L 240,608 ZM 553.587,121.587 L 640,208 L 640-32 L 400-32 L 486.413,54.413 L 353.913,186.913 L 421.087,254.087 ZM 286.087,186.913 L 153.588,54.413 L 240-32 L 0-32 L 0,208 L 86.412,121.587 L 218.912,254.087 Z" />
<glyph unicode="&#xe00b;" d="M 300,568C 134.315,568,0,433.685,0,268c0-165.686, 134.315-300, 300-300c 165.686,0, 300,134.314, 300,300
		C 600,433.685, 465.686,568, 300,568z M 300,28c-132.549,0-240,107.451-240,240c0,132.549, 107.451,240, 240,240
		c 132.549,0, 240-107.451, 240-240C 540,135.451, 432.549,28, 300,28zM 320,288l0,80 l 80,0 l0,40 l-80,0 l0,40 l-40,0 l0-40 l-80,0 l0-160 l 80,0 l0-80 l-80,0 l0-40 l 80,0 l0-40 l 40,0 l0,40 l 80,0 l 0.001,0 L 400,288L 320,288 z M 280,288l-40,0 l0,80 l 40,0 L 280,288 z
	 M 360.001,168L 320,168 l0,80 l 40.001,0 L 360.001,168 z" />
<glyph unicode="&#xe00c;" d="M 474.24,145.664c-78.88,28.736-104.096,52.992-104.096,104.928c0,31.168, 24.096,20.992, 34.656,78.080c 4.384,23.68, 25.664,0.384, 29.76,54.432
		c0,21.536-11.616,26.912-11.616,26.912s 5.92,31.904, 8.224,56.416C 433.984,497.024, 413.504,576, 304,576C 194.528,576, 173.984,497.024, 176.864,466.432
		C 179.168,441.92, 185.088,410.016, 185.088,410.016S 173.44,404.672, 173.44,383.104c 4.064-54.048, 25.344-30.752, 29.728-54.432
		c 10.592-57.088, 34.688-46.912, 34.688-78.080c0-51.936-25.216-76.192-104.096-104.928c-79.168-28.8-130.56-58.208-130.56-78.272c0-20.032,0-67.36,0-67.36
		l 300.8,0 l 300.8,0 c0,0,0,47.328,0,67.36C 604.8,87.424, 553.376,116.832, 474.24,145.664z" />
<glyph unicode="&#xe00d;" d="M 560,448l-120,0 L 440,528 c0,22-18,40-40,40L 240,568 c-22,0-40-18-40-40l0-80 L 80,448 c-44,0-80-36-80-80l0-320 c0-44, 36-80, 80-80l 480,0 
	c 44,0, 80,36, 80,80L 640,368 C 640,412, 604,448, 560,448z M 240,528l 160,0 l0-80 L 240,448 L 240,528 z M 480,168l-120,0 l0-120 l-80,0 l0,120 l-120,0 l0,80 l 120,0 l0,120 l 80,0 l0-120 l 120,0 
	L 480,168 z" />
<glyph unicode="&#x26c4;" d="M0,368l 440,0 l0-80 L0,288 L0,368 z M0,488l 440,0 l0-80 L0,408 L0,488 z M0,248l 440,0 l0-80 L0,168 L0,248 z M0,128l 440,0 l0-80 L0,48 L0,128 z M 480,248l 80-120l 80,120L 480,248 z M 640,288
	l-80,120l-80-120L 640,288 z" />
<glyph unicode="&#xe00f;" d="M 120,568l0-480 l 480,0 L 600,568 L 120,568 z M 560,128L 160,128 L 160,528 l 400,0 L 560,128 zM 80,48L 80,448L 40,488L 40,8L 520,8L 480,48 	zM 268.284,179.716L 388.284,299.716L 480,208L 480,448L 240,448L 331.716,356.284L 211.716,236.284 	z" />
<glyph unicode="&#xe010;" d="M 620,368L 400,368 L 400,588 c0,11.040-8.94,20-20,20l-120,0 c-11.060,0-20-8.96-20-20l0-220 L 20,368 
		c-11.060,0-20-8.96-20-20l0-120 c0-11.060, 8.94-20, 20-20l 220,0 l0-220 c0-11.060, 8.94-20, 20-20l 120,0 c 11.060,0, 20,8.94, 20,20L 400,208 l 220,0 c 11.060,0, 20,8.94, 20,20l0,120 
		C 640,359.040, 631.060,368, 620,368z" />
<glyph unicode="&#xe011;" d="M 20,368l 600,0 c 11.060,0, 20-8.96, 20-20l0-120 c0-11.060-8.94-20-20-20L 20,208 c-11.040,0-20,8.94-20,20l0,120 
	C0,359.040, 8.96,368, 20,368z" />
<glyph unicode="&#xe00e;" d="M 640,6.4c0,0-1.248,121.184-8.672,133.728c-11.040,18.72-36.672,31.552-84.288,51.456c-47.456,19.84-62.656,36.608-62.656,72.416
		c0,21.536, 14.496,14.496, 20.864,53.888c 2.624,16.352, 15.424,0.288, 17.888,37.568c0,14.88-6.976,18.592-6.976,18.592s 3.52,22.016, 4.928,38.944
		c 1.728,21.12-10.656,75.616-76.544,75.616s-78.208-54.528-76.512-75.616c 1.376-16.928, 4.896-38.944, 4.896-38.944s-6.976-3.712-6.976-18.592
		c 2.464-37.312, 15.264-21.248, 17.92-37.568c 6.336-39.392, 20.832-32.352, 20.832-53.888c0-24.352-7.040-39.904-26.464-53.568
		c 103.68-51.904, 117.6-62.496, 117.6-108.896L 495.84,6.4 L 640,6.4 z M 327.168,173.6c-63.328,26.432-83.52,48.768-83.52,96.544c0,28.672, 19.328,19.328, 27.808,71.872
		c 3.488,21.792, 20.608,0.352, 23.84,50.080c0,19.84-9.312,24.768-9.312,24.768s 4.736,29.344, 6.592,51.936C 294.88,496.896, 278.368,569.6, 190.528,569.6
		c-87.84,0-104.32-72.672-102.016-100.8c 1.856-22.592, 6.56-51.936, 6.56-51.936S 85.792,411.936, 85.792,392.096
		c 3.296-49.76, 20.352-28.32, 23.872-50.080c 8.48-52.544, 27.808-43.168, 27.808-71.872c0-47.776-20.256-70.112-83.52-96.544
		C 34.656,165.536,0,153.024,0,123.008L0,6.4 l 444.608,0 c0,0,0,68.96,0,87.392C 444.608,121.216, 390.624,147.040, 327.168,173.6z" />
<glyph unicode="&#xe012;" d="M 551.136,383.072c-50.656,117.92-132.224,207.712-173.472,190.912c-70.048-28.48, 41.76-165.248-302.272-305.088
	c-29.728-12.064-37.248-60.416-24.8-89.312c 12.416-28.896, 53.056-57.664, 82.784-45.6c 5.12,2.080, 24.032,8.16, 24.032,8.16
	c 21.216-28.48, 43.424-11.584, 51.328-29.696c 9.472-21.76, 30.048-69.024, 37.024-85.088c 7.040-16.064, 22.912-30.976, 34.432-26.592
	c 11.456,4.384, 50.592,19.296, 65.568,24.96s 18.56,19.040, 13.984,29.568c-4.928,11.328-25.152,14.656-30.912,27.904
	c-5.792,13.248-24.64,55.648-30.048,69.024c-7.36,18.176, 8.288,32.96, 31.040,35.328c 156.608,16.32, 185.888-80.416, 239.2-58.72
	C 610.176,145.664, 601.792,265.152, 551.136,383.072z M 533.504,191.808c-9.152-3.712-70.784,44.864-110.176,136.544
	c-39.36,91.648-34.4,175.424-25.28,179.136c 9.152,3.744, 69.28-54.912, 108.672-146.56C 546.048,269.312, 542.656,195.52, 533.504,191.808z" />
<glyph unicode="&#xe014;" d="M 542.976,448c0,32-31.84,32-31.84,32L 128.864,480 c0,0-31.84,0-31.84-32l0-32 l 445.952,0 L 542.976,448 z M 447.392,544L 192.576,544 c0,0-31.84,0-31.84-32l 318.528,0 
		C 479.264,544, 447.392,544, 447.392,544z M 606.656,416c-18.848,18.944-18.848,18.944-18.848,18.944L 587.808,384 L 52.16,384 L 52.16,434.944 c0,0,0,0-18.848-18.944
		S 0.96,391.968, 8.576,351.968C 16.096,312.128, 52.672,93.568, 58.080,64c 5.984-32.448, 38.944-32, 38.944-32l 445.952,0 c0,0, 32.96-0.448, 38.944,32
		c 5.44,29.568, 41.984,248.128, 49.536,287.968C 639.040,391.968, 625.536,397.056, 606.656,416z M 447.392,243.2c0,0,0-32-31.872-32L 224.448,211.2 
		c-31.84,0-31.84,32-31.84,32l0,64 l 44.608,0 L 237.216,256 l 165.536,0 L 402.752,307.2 l 44.672,0 L 447.424,243.2 z" />
<glyph unicode="&#xe015;" d="M 506.667,341.333L 373.333,341.333L 373.333,474.667L 240,474.667L 240,341.333L 106.667,341.333L 106.667,208L 240,208L 240,74.667L 373.333,74.667L 373.333,208L 506.667,208 			z" />
<glyph unicode="&#xe04d;" d="M 453.333,474.667L 160,474.667 C 116,474.667, 80,438.667, 80,394.667l0-160 c0-44, 36-80, 80-80l 26.667,0 l0-80 l 80,80l 186.667,0 c 44,0, 80,36, 80,80L 533.333,394.667 C 533.333,438.667, 497.333,474.667, 453.333,474.667z M 480,234.667
			c0-14.453-12.213-26.667-26.667-26.667L 160,208 c-14.453,0-26.667,12.213-26.667,26.667L 133.333,394.667 c0,14.453, 12.213,26.667, 26.667,26.667l 293.333,0 c 14.453,0, 26.667-12.213, 26.667-26.667L 480,234.667 zM 160,314.667A40,40 900 1 0 240,314.667A40,40 900 1 0 160,314.667zM 266.667,314.667A40,40 900 1 0 346.667,314.667A40,40 900 1 0 266.667,314.667zM 373.333,314.667A40,40 900 1 0 453.333,314.667A40,40 900 1 0 373.333,314.667z" />
<glyph unicode="&#xe013;" d="M 540,608 C 595.227,608 640,563.229 640,508 C 640,485.487 632.556,464.714 620,448 L 580,408 L 440,548 L 480,588 C 496.714,600.556 517.486,608 540,608 ZM 40,148L0-32l 180,40l 370,370L 410,518L 40,148z M 447.236,380.764l-280-280l-34.472,34.472l 280,280L 447.236,380.764z" />
<glyph unicode="&#xf0fe;" d="M 456.857,265.143l0,45.714 q0,9.286 -6.786,16.071t-16.071,6.786l-114.286,0 l0,114.286 q0,9.286 -6.786,16.071t-16.071,6.786l-45.714,0 q-9.286,0 -16.071-6.786t-6.786-16.071l0-114.286 l-114.286,0 q-9.286,0 -16.071-6.786t-6.786-16.071l0-45.714 q0-9.286 6.786-16.071t 16.071-6.786l 114.286,0 l0-114.286 q0-9.286 6.786-16.071t 16.071-6.786l 45.714,0 q 9.286,0 16.071,6.786t 6.786,16.071l0,114.286 l 114.286,0 q 9.286,0 16.071,6.786t 6.786,16.071zM 548.285,459.429l0-342.857  q0-42.5 -30.179-72.679t-72.679-30.179l-342.857,0 q-42.5,0 -72.679,30.179t-30.179,72.679l0,342.857 q0,42.5 30.179,72.679t 72.679,30.179l 342.857,0 q 42.5,0 72.679-30.179t 30.179-72.679z" horiz-adv-x="548" />
<glyph unicode="&#xe061;" d="M 453.333,341.333l-26.667,0 L 426.667,394.667 c0,58.827-47.84,106.667-106.667,106.667S 213.333,453.493, 213.333,394.667l0-53.333 L 186.667,341.333 c-14.667,0-26.667-12-26.667-26.667l0-186.667 c0-14.667, 12-26.667, 26.667-26.667l 266.667,0 c 14.667,0, 26.667,12, 26.667,26.667l0,186.667 
			C 480,329.333, 468,341.333, 453.333,341.333z M 266.667,394.667c0,29.413, 23.92,53.333, 53.333,53.333s 53.333-23.92, 53.333-53.333l0-53.333 l-106.667,0 L 266.667,394.667 z" />
<glyph unicode="&#xf000;" d="M0,608L 640-32L0-32 z" horiz-adv-x="0" />
<glyph unicode="&#xe016;" d="M 585.214,437.286q 14.286-20.357 6.429-46.071l-98.214-323.571q-6.786-22.857 -27.321-38.393t-43.75-15.536l-329.643,0 q-27.5,0 -53.036,19.107t-35.536,46.964q-8.571,23.929 -0.714,45.357q0,1.429 1.071,9.643t 1.429,13.214q 0.357,2.857 -1.071,7.679t-1.071,6.964q 0.714,3.929 2.857,7.5t 5.893,8.393t 5.893,8.393q 8.214,13.571 16.071,32.679t 10.714,32.679q 1.071,3.571 0.179,10.714t-0.179,10q 1.071,3.929 6.071,10t 6.071,8.214 q 7.5,12.857 15,32.857t 8.929,32.143q 0.357,3.214 -0.893,11.429t 0.179,10q 1.429,4.643 7.857,10.893t 7.857,8.036q 6.786,9.286 15.179,30.179t 9.821,34.464q 0.357,2.857 -1.071,9.107t-0.714,9.464q 0.714,2.857 3.214,6.429t 6.429,8.214t 6.071,7.5q 2.857,4.286 5.893,10.893t 5.357,12.5t 5.714,12.857t 6.964,11.429t 9.464,8.393t 12.857,4.107t 16.964-1.964l-0.357-1.071q 13.571,3.214 18.214,3.214l 271.786,0 q 26.429,0 40.714-20t 6.429-46.429l-97.857-323.571 q-12.857-42.5 -25.536-54.821t-45.893-12.321l-310.357,0 q-9.643,0 -13.571-5.357q-3.929-5.714 -0.357-15.357q 8.571-25 51.429-25l 329.643,0 q 10.357,0 20,5.536t 12.5,14.821l 107.143,352.5q 2.5,7.857 1.786,20.357q 13.571-5.357 21.071-15.357zM 205.214,436.571q-1.429-4.643 0.714-8.036t 7.143-3.393l 217.143,0 q 4.643,0 9.107,3.393t 5.893,8.036l 7.5,22.857q 1.429,4.643 -0.714,8.036t-7.143,3.393l-217.143,0 q-4.643,0 -9.107-3.393 t-5.893-8.036zM 175.571,345.143q-1.429-4.643 0.714-8.036t 7.143-3.393l 217.143,0 q 4.643,0 9.107,3.393t 5.893,8.036l 7.5,22.857q 1.429,4.643 -0.714,8.036t-7.143,3.393l-217.143,0 q-4.643,0 -9.107-3.393t-5.893-8.036z" horiz-adv-x="594" />
<glyph unicode="&#xe017;" d="M 600,448c 22.091,0, 40,17.909, 40,40L 640,568 l-80,0 L 560,608 L 40,608 C 18,608,0,590.001,0,568l0-560 c0-22, 17.997-40, 40-40l 520,0 L 560,128 l 40,0 
	c 22.091,0, 40,17.909, 40,40l0,80 l-80,0 l0,40 l 40,0 c 22.091,0, 40,17.909, 40,40l0,80 l-80,0 l0,40 L 600,448 z M 360,447.794
	c 44.069,0, 79.794-35.725, 79.794-79.794s-35.725-79.794-79.794-79.794c-44.069,0-79.794,35.725-79.794,79.794
	S 315.931,447.794, 360,447.794z M 160,8L 120,8 L 120,568 l 40,0 L 160,8 z M 480,128L 240,128 l0,40 c0,44.184, 35.818,80, 80,80l0,0 l 80,0 c 44.185,0, 80-35.816, 80-80
	L 480,128 z" />
<glyph unicode="&#xe02c;" d="M 227.326,156.717l 25.811,36.135l-28.284,28.285l-36.136-25.81c-6.701,3.746-13.878,6.734-21.416,8.87L 160,248L 120,248 
		l-7.3-43.804c-7.539-2.136-14.715-5.124-21.416-8.87L 55.148,221.137L 26.862,192.853l 25.811-36.135
		c-3.746-6.7-6.734-13.879-8.87-21.416L0,128l0-40 l 43.804-7.301c 2.136-7.538, 5.124-14.715, 8.87-21.416L 26.862,23.148l 28.284-28.285
		l 36.136,25.81c 6.701-3.746, 13.878-6.734, 21.416-8.87L 120-32l 40,0 l 7.3,43.804c 7.539,2.136, 14.715,5.124, 21.416,8.87l 36.136-25.81
		l 28.284,28.285l-25.811,36.135c 3.746,6.7, 6.734,13.879, 8.87,21.416L 280,88l0,40 l-43.804,7.301
		C 234.060,142.839, 231.072,150.016, 227.326,156.717z M 140,68c-22.093,0-40,17.909-40,40s 17.907,40, 40,40s 40-17.909, 40-40
		S 162.093,68, 140,68zM 640,368l0,40 l-42.114,7.656c-0.776,5.029-1.77,9.986-2.953,14.869l 35.974,23.188L 615.6,490.668l-41.84-9.043
		c-2.634,4.319-5.454,8.512-8.433,12.581l 24.379,35.214l-28.285,28.284l-35.214-24.379c-4.070,2.979-8.263,5.797-12.581,8.434
		l 9.043,41.84L 485.714,598.908l-23.188-35.974c-4.883,1.182-9.84,2.176-14.869,2.953L 440,608l-40,0 l-7.658-42.114
		c-5.029-0.776-9.985-1.77-14.869-2.953L 354.288,598.908L 317.333,583.6l 9.043-41.84c-4.319-2.635-8.512-5.455-12.581-8.434
		l-35.214,24.379l-28.284-28.284l 24.379-35.214c-2.979-4.069-5.799-8.263-8.434-12.581l-41.84,9.043l-15.308-36.955l 35.974-23.188
		c-1.182-4.883-2.176-9.839-2.953-14.869L 200,408l0-40 l 42.114-7.656c 0.776-5.029, 1.77-9.986, 2.953-14.869l-35.974-23.188
		l 15.308-36.955l 41.84,9.043c 2.635-4.319, 5.455-8.511, 8.434-12.581l-24.379-35.214l 28.284-28.285l 35.214,24.379
		c 4.069-2.979, 8.263-5.797, 12.581-8.433l-9.043-41.84l 36.955-15.308l 23.189,35.974c 4.881-1.182, 9.839-2.176, 14.867-2.953L 400,168l 40,0 
		l 7.658,42.114c 5.027,0.776, 9.985,1.77, 14.869,2.953l 23.188-35.974l 36.955,15.308l-9.043,41.84
		c 4.319,2.635, 8.512,5.454, 12.581,8.433l 35.214-24.379l 28.285,28.285l-24.379,35.214c 2.979,4.070, 5.797,8.263, 8.433,12.581
		l 41.84-9.043l 15.308,36.956l-35.974,23.188c 1.182,4.883, 2.176,9.839, 2.953,14.869L 640,368z M 420,301
		c-48.049,0-87,38.951-87,87c0,48.049, 38.95,87, 87,87s 87-38.951, 87-87C 507,339.951, 468.050,301, 420,301z" />
<glyph unicode="&#xe019;" d="M 540,28L 80,28 c-22.1,0-40,17.92-40,40L 40,308 c0,0, 104.42-53.7, 200-75.68L 240,208 
	c0-11.060, 8.94-20, 20-20l 100,0 c 11.040,0, 20,8.94, 20,20l0,24.32 C 475.56,254.3, 580,308, 580,308l0-240 C 580,45.92, 562.080,28, 540,28z M 340,268
	c 11.040,0, 20-8.94, 20-20l0-20 c0-11.060-8.96-20-20-20l-60,0 c-11.060,0-20,8.94-20,20l0,20 c0,11.060, 8.94,20, 20,20L 340,268 z M 380,268c0,11.060-8.96,20-20,20l-100,0 
	c-11.060,0-20-8.94-20-20l0-17.92 C 144.42,272.72, 40,328, 40,328l0,80 c0,22.080, 17.9,40, 40,40l 120,0 L 200,488 c0,22.080, 17.92,40, 40,40l 140,0 c 22.080,0, 40-17.92, 40-40l0-40 l 120,0 
	c 22.080,0, 40-17.92, 40-40l0-80 c0,0-104.44-55.28-200-77.92L 380,268 z M 380,468c0,11.060-8.96,20-20,20l-100,0 c-11.060,0-20-8.94-20-20c0-11.040,0-20,0-20l 140,0 
	C 380,448, 380,456.96, 380,468z" />
<glyph unicode="&#xe01e;" d="M 200,568 L 40,568 L 40,408 L 200,408 L 200,568 Z M 240,608 L 240,608 L 240,368 L 0,368 L 0,608 L 240,608 ZM 80,528L 160,528L 160,448L 80,448zM 600,568 L 440,568 L 440,408 L 600,408 L 600,568 Z M 640,608 L 640,608 L 640,368 L 400,368 L 400,608 L 640,608 ZM 480,528L 560,528L 560,448L 480,448zM 200,168 L 40,168 L 40,8 L 200,8 L 200,168 Z M 240,208 L 240,208 L 240-32 L 0-32 L 0,208 L 240,208 ZM 80,128L 160,128L 160,48L 80,48zM 280,608L 320,608L 320,568L 280,568zM 320,568L 360,568L 360,528L 320,528zM 280,528L 320,528L 320,488L 280,488zM 320,488L 360,488L 360,448L 320,448zM 280,448L 320,448L 320,408L 280,408zM 320,408L 360,408L 360,368L 320,368zM 280,368L 320,368L 320,328L 280,328zM 280,288L 320,288L 320,248L 280,248zM 320,248L 360,248L 360,208L 320,208zM 280,208L 320,208L 320,168L 280,168zM 320,168L 360,168L 360,128L 320,128zM 280,128L 320,128L 320,88L 280,88zM 320,88L 360,88L 360,48L 320,48zM 280,48L 320,48L 320,8L 280,8zM 320,8L 360,8L 360-32L 320-32zM 600,288L 640,288L 640,248L 600,248zM 40,288L 80,288L 80,248L 40,248zM 80,328L 120,328L 120,288L 80,288zM0,328L 40,328L 40,288L0,288zM 160,328L 200,328L 200,288L 160,288zM 200,288L 240,288L 240,248L 200,248zM 240,328L 280,328L 280,288L 240,288zM 360,288L 400,288L 400,248L 360,248zM 400,328L 440,328L 440,288L 400,288zM 440,288L 480,288L 480,248L 440,248zM 480,328L 520,328L 520,288L 480,288zM 520,288L 560,288L 560,248L 520,248zM 560,328L 600,328L 600,288L 560,288zM 600,208L 640,208L 640,168L 600,168zM 360,208L 400,208L 400,168L 360,168zM 400,248L 440,248L 440,208L 400,208zM 440,208L 480,208L 480,168L 440,168zM 520,208L 560,208L 560,168L 520,168zM 560,248L 600,248L 600,208L 560,208zM 600,128L 640,128L 640,88L 600,88zM 360,128L 400,128L 400,88L 360,88zM 400,168L 440,168L 440,128L 400,128zM 480,168L 520,168L 520,128L 480,128zM 520,128L 560,128L 560,88L 520,88zM 560,168L 600,168L 600,128L 560,128zM 600,48L 640,48L 640,8L 600,8zM 400,88L 440,88L 440,48L 400,48zM 440,48L 480,48L 480,8L 440,8zM 480,88L 520,88L 520,48L 480,48zM 520,48L 560,48L 560,8L 520,8zM 400,8L 440,8L 440-32L 400-32zM 480,8L 520,8L 520-32L 480-32zM 560,8L 600,8L 600-32L 560-32z" />
<glyph unicode="&#xe01f;" d="M 610.989,486.461c-21.24,6.067-43.381-6.231-49.45-27.473L 558.4,448L 185.311,448 l-5.62,44.961
		C 177.189,512.979, 160.173,528, 140,528L 40,528 C 17.909,528,0,510.091,0,488s 17.909-40, 40-40l 64.689,0 l 35.62-284.961
		C 142.811,143.022, 159.827,128, 180,128l 340,0 c 17.859,0, 33.555,11.84, 38.461,29.011l 80,280
		C 644.53,458.252, 632.23,480.392, 610.989,486.461z M 320,288l0,40 l 79.998,0 l0-40 L 320,288 z M 399.998,248l0-40 L 320,208 l0,40 L 399.998,248 z M 320,368l0,40 
		l 79.998,0 l0-40 L 320,368 z M 190.311,408L 280,408 l0-40 l-84.689,0 L 190.311,408z M 200.311,328L 280,328 l0-40 l-74.689,0 L 200.311,328z M 210.311,248L 280,248 l0-40 l-64.689,0 
		L 210.311,248z M 489.828,208l-49.83,0 l0,40 l 61.259,0 L 489.828,208z M 512.685,288l-72.688,0 l0,40 l 84.116,0 L 512.685,288z M 535.543,368l-95.545,0 
		l0,40 l 106.974,0 L 535.543,368zM 160,28A60,60 3780 1 1 280,28A60,60 3780 1 1 160,28zM 400,28A60,60 3780 1 1 520,28A60,60 3780 1 1 400,28z" />
<glyph unicode="&#xe04a;" d="M 334.44,170.74c-9.12,8.64-19.76,15.28-31.38,19.42l-24.36,94.86l 290.12,81.16
	l 31.080-121.12L 334.44,170.74z M 242.080,427.62l 193.42,54.1l 31.1-121.16l-193.4-54.1L 242.080,427.62z M 250.76,191.98
	c-5.4-1.52-10.42-3.68-15.3-6.060L 150.18,518.22L 118.1,518.22 C 114.88,511.2, 108.14,506.26, 100.18,506.26L 60.14,506.26 
	c-11.060,0-20.020,9.38-20.020,20.92s 8.96,20.9, 20.020,20.9l 40.040,0 c 6.72,0, 12.36-3.68, 16-8.94l 61.6,0 l0-1.020 l 0.92,0.28
	l 88.2-343.66C 261.52,194.24, 256.14,193.46, 250.76,191.98z M 255.94,171.78c 37.38,10.46, 75.8-12.7, 85.82-51.76
	c 10.020-39.020-12.16-79.14-49.56-89.6c-37.38-10.42-75.8,12.74-85.82,51.76S 218.56,161.32, 255.94,171.78z M 245.4,91.72
	c 4.28-16.72, 20.76-26.64, 36.78-22.14s 25.52,21.68, 21.24,38.4c-4.28,16.72-20.76,26.64-36.78,22.18
	C 250.6,125.66, 241.1,108.46, 245.4,91.72z M 597.4,173.98l-233.68-65.36c-0.42,5.58-1.2,11.22-2.64,16.84
	c-1.42,5.62-3.48,10.9-5.78,15.98l 232.46,65L 597.4,173.98z" />
<glyph unicode="&#xe040;" d="M 357.82,411.9l-75.8,0 c0,0-123.4-96.62-123.4-242.16s 129.72-146.94, 129.72-146.94
			s 33.76-2.5, 62.5,0c0-1.24, 130.5,17.3, 130.5,147.060C 481.36,299.58, 357.82,411.9, 357.82,411.9z M 282.020,421.4l 75.94,0 L 357.96,449.88 l-75.94,0 
			L 282.020,421.4 z M 356.8,459.36l 38.56,94.94c0,0-24.34-20.18-38.56-20.18c-14.26,0-36.8,19.58-36.8,19.58s-24.32-19.58-38.56-19.58
			s-37.38,18.98-37.38,18.98l 39.16-93.76L 356.8,459.34 z" />
<glyph unicode="&#xe025;" d="M 320,608L0,408l 640,0 L 320,608z M 500,368l 20-40l0-240 l 80,0 L 600,328 l 20,40L 500,368 z M 340,368l 20-40l0-240 l 80,0 L 440,328 l 20,40L 340,368 z M 180,368l 20-40l0-240 l 80,0 
	L 280,328 l 20,40L 180,368 z M 20,368l 20-40l0-240 l 80,0 L 120,328 l 20,40L 20,368 z M 20,48L0-32l 640,0 l-20,80L 20,48 z M 360,488c0-22.091-17.909-40-40-40
	c-22.091,0-40,17.909-40,40s 17.909,40, 40,40C 342.091,528, 360,510.091, 360,488z" />
<glyph unicode="&#xe043;" d="M 481.28,476.34l-75.46-167.5l-21.96,0 l 80.48,178.32l-124.26,0 l0-415.42 
	c 25.6-0.94, 156.26-43.34, 156.26-43.34L 496.34,8 L 145.14,8 l0,21.78 c0,0, 133.56,41.98, 153.68,41.98L 298.82,487.16 L 178.52,487.16 l 80.5-178.32l-21.96,0 L 161.6,476.34
	l-75.46-167.5L 64.18,308.84 l 80.96,179.32L 145.14,508.84 l 1.36,0 l 133.72,0 c0,27.060, 18.14,49.16, 39.3,49.16c 22.38,0, 39.3-23.36, 39.3-49.16l 137.56,0 l0-17.74 
	l 82.32-182.26l-21.96,0 L 481.28,476.34z M 260.4,288.42c0-53.86-37.36-105.64-98.78-105.64c-60.040,0-98.78,51.78-98.78,105.64
	C 62.82,288.34, 260.4,288.34, 260.4,288.42z M 385.24,288.42c0-0.1, 197.58-0.1, 197.58,0c0-53.86-37.36-105.64-98.78-105.64
	C 423.98,182.78, 385.24,234.56, 385.24,288.42z" />
<glyph unicode="&#xe044;" d="M 232.46,455.94l 121.24-70c 9.58-5.52, 21.8-2.24, 27.3,7.32
			c 5.54,9.56, 2.26,21.8-7.3,27.3l-121.24,70c-9.58,5.52-21.8,2.24-27.32-7.3C 219.6,473.7, 222.9,461.48, 232.46,455.94z
			 M 343.72,368.62l-121.24,70l-70-121.24l 121.24-70L 343.72,368.62z M 122.46,265.42l 121.24-70c 9.56-5.52, 21.8-2.24, 27.3,7.32
			c 5.52,9.56, 2.24,21.8-7.3,27.3l-121.24,70c-9.58,5.52-21.8,2.24-27.32-7.3C 109.6,283.18, 112.9,270.94, 122.46,265.42z
			 M 540.24,208.98l-221.52,116.34l-20-34.64l 211.52-133.66c 14.34-8.28, 32.7-3.38, 40.98,10.98S 554.58,200.7, 540.24,208.98z
			 M 320.66,108c0,11.060-8.96,20-20,20l-180,0 c-11.060,0-20-8.94-20-20c0-11.040,0-20,0-20L 80,88.42L 80.66,68l 260,0 l 0.94,19.16L 321.92,88
			C 321.92,88, 320.66,96.96, 320.66,108z" />
<glyph unicode="&#xe03e;" d="M 79.74,528L 60,528 l0-480 l 520,0 l0,19.26 l-499.92,1L 79.74,528z M 340,508c0,11.060-8.96,20-20,20l-60,0 
			c-11.060,0-20-8.94-20-20l0-400 l 100,0 L 340,508 z M 220,388c0,11.040-8.96,20-20,20L 140,408 c-11.060,0-20-8.96-20-20l0-280 l 100,0 L 220,388 z M 460,268c0,11.060-8.96,20-20,20l-60,0 
			c-11.060,0-20-8.94-20-20l0-160 l 100,0 L 460,268 z M 560,168l-60,0 c-11.060,0-20-8.94-20-20l0-40 l 100,0 l0,40 C 580,159.060, 571.040,168, 560,168z" />
<glyph unicode="&#xe035;" d="M 600,128L 600,328 L 360,328 L 360,448 l 40,0 L 400,608 L 240,608 l0-160 l 40,0 l0-120 L 40,328 l0-200 L0,128 l0-160 l 160,0 l0,160 L 120,128 L 120,248 l 160,0 l0-120 L 240,128 l0-160 l 160,0 l0,160 L 360,128 L 360,248 l 160,0 l0-120 l-40,0 l0-160 l 160,0 l0,160 L 600,128 z
	 M 120,8L 40,8 l0,80 l 80,0 L 120,8 z M 360,8L 280,8 l0,80 l 80,0 L 360,8 z M 280,488L 280,568 l 80,0 l0-80 L 280,488 z M 600,8l-80,0 l0,80 l 80,0 L 600,8 z" />
<glyph unicode="&#xe03d;" d="M 339.96,309.16c0,0, 1.92,239.72,0,239.72c 137.92,0, 239.72-101.8, 239.72-239.72
	C 579.68,308.4, 339.96,309.16, 339.96,309.16z M 559.72,259.96c0-143.42-116.28-259.7-259.7-259.7
	c-143.44,0-259.7,116.28-259.7,259.7c0,143.44, 116.26,259.7, 259.7,259.7c 6.74,0, 13.36-0.48, 19.98-1l0-229.48 l 238.16,0 
	C 559.16,279.98, 559.72,269.42, 559.72,259.96z M 538.5,267.96L 300.020,267.96 L 300.020,499.68 c-132.4,0-239.72-107.34-239.72-239.74
	s 107.32-239.7, 239.72-239.7s 239.72,107.3, 239.72,239.7C 539.74,285.74, 538.5,267.96, 538.5,267.96z" />
<glyph unicode="&#xe031;" d="M 320,368.027c-44.16,0-80-35.84-80-80s 35.84-80, 80-80s 80,35.84, 80,80S 364.16,368.027, 320,368.027z M 566.16,358.267
			c-8.667,2.8-16.48,7.253-23.173,13.147c-10.773-19.84-24.053-40.187-38.373-60.587c-22.267,28.613-47.68,57.493-76.027,85.84
			c-28.133,28.133-57.12,53.653-86.027,76.107c 68.72,48.427, 134.773,77.573, 181.787,77.573c 19.093,0, 33.707-4.933, 43.413-14.64
			c 10.56-10.56, 15.227-27.147, 14.4-48.16c 1.52,0.107, 2.933,0.48, 4.48,0.48c 7.68,0, 14.987-1.573, 21.84-3.947
			c 1.653,29.893-5.44,54.053-21.867,70.507c-14.907,14.907-35.84,22.453-62.267,22.453c-54.48,0-128.32-32.507-204.32-87.387
			C 244.027,544.533, 170.187,577.067, 115.707,577.067c-5.653,0-10.96-0.533-16.107-1.227c 7.28-7.040, 12.773-15.733, 16.267-25.467
			c 47.013-0.053, 113.013-29.2, 181.68-77.6C 268.587,450.267, 239.573,424.747, 211.467,396.613c-28-28.027-53.52-57.067-76.16-86.24
			C 112.507,342.667, 93.707,374.693, 80.24,405.12c-9.227,20.773-15.387,39.84-18.987,57.067C 58.613,461.84, 56.053,461.36, 53.333,461.36
			c-6.88,0-13.387,1.36-19.627,3.28c 3.573-21.227, 10.8-44.747, 22.16-70.347c 15.12-34.16, 36.4-70.187, 62.533-106.347
			c-26.107-36.107-47.333-72.133-62.48-106.267c-32.24-72.72-33.093-129.627-2.427-160.293c 14.907-14.907, 35.84-22.453, 62.267-22.453
			c 80.533,0, 203.36,70.827, 312.933,180.453c 28.080,28.107, 53.627,57.227, 76.24,86.48c 73.867-104.373, 95.040-193.333, 62.8-225.573
			c-9.707-9.707-24.32-14.64-43.413-14.64c-25.147,0-55.867,8.48-89.44,23.653c-3.547-8.533-8.8-16.107-15.333-22.453
			c 38.88-18, 74.773-27.867, 104.773-27.867c 26.427,0, 47.36,7.547, 62.267,22.453c 46.347,46.347, 17.093,152.827-65.307,266.96
			C 538.213,311.893, 553.68,335.36, 566.16,358.267z M 115.76,25.6c-19.093,0-33.707,4.933-43.413,14.64c-22,22-19.12,69.6, 7.947,130.613
			c 13.467,30.4, 32.24,62.373, 54.987,94.667c 22.64-29.147, 48.133-58.187, 76.107-86.133c 28.293-28.293, 57.44-53.36, 86.56-75.893
			C 229.067,54.853, 162.827,25.6, 115.76,25.6z M 409.84,198.24c-29.173-29.173-59.52-55.52-89.707-78.453
			c-30.267,22.987-60.64,49.253-89.893,78.453c-29.173,29.173-55.44,59.44-78.48,89.707c 23.040,30.32, 49.387,60.613, 78.56,89.813
			C 259.467,406.933, 289.84,433.28, 320.053,456.267c 30.187-22.96, 60.533-49.307, 89.68-78.453c 30.293-30.293, 56.373-60.4, 78.72-89.6
			C 465.413,257.813, 439.093,227.493, 409.84,198.24z M 586.667,448.027c-14.747,0-26.667-11.92-26.667-26.667s 11.92-26.667, 26.667-26.667s 26.667,11.92, 26.667,26.667S 601.413,448.027, 586.667,448.027z
			 M 373.333,101.36c-14.747,0-26.667-11.92-26.667-26.667s 11.92-26.667, 26.667-26.667s 26.667,11.92, 26.667,26.667S 388.080,101.36, 373.333,101.36z M 53.333,501.36c 14.747,0, 26.667,11.92, 26.667,26.667s-11.92,26.667-26.667,26.667
			s-26.667-11.92-26.667-26.667S 38.587,501.36, 53.333,501.36z" />
<glyph unicode="&#xe049;" d="M 310,568C 149.84,568, 20,438.16, 20,278S 149.84-12, 310-12S 600,117.84, 600,278
			S 470.16,568, 310,568z M 215.040,530.92c-14.28-25.78-31.18-65.9-42.26-122.62L 73.12,408.3 C 104.14,464.28, 154.36,508.16, 215.040,530.92z
			 M 63.080,388.26l 106.32,0 c-4.68-29.36-7.82-62.56-8.3-100.24l-121.2,0 C 41.24,323.64, 49.26,357.5, 63.080,388.26z M 39.76,267.98l 121.44,0 
			c 0.46-37.86, 3.76-70.82, 8.44-100.24l-105.8,0 C 49.96,198.6, 41.080,232.22, 39.76,267.98z M 73.4,147.7l 99.54,0 
			c 11.18-57.28, 28.32-97.34, 42.68-122.84C 154.7,47.54, 104.48,91.58, 73.4,147.7z M 301.24,7.82
			c-21.040,0.66-41.34,3.98-60.9,9.2c-15.1,24.72-34.72,67.26-47.12,130.68l 108.020,0 L 301.24,7.82 z M 301.24,167.74L 189.68,167.74 
			c-4.68,29.38-7.92,62.38-8.42,100.24l 119.96,0 L 301.22,167.74 z M 301.24,288.020L 181.16,288.020 c 0.5,37.72, 3.66,70.86, 8.34,100.24l 111.74,0 L 301.24,288.020 z
			 M 301.24,408.3L 192.8,408.3 c 12.3,62.96, 31.82,105.32, 46.88,130.5c 19.74,5.32, 40.3,8.7, 61.56,9.4L 301.24,408.3 z M 580.060,288.020L 461.4,288.020 
			c-0.5,37.68-3.64,70.88-8.32,100.24l 103.44,0 C 570.38,357.44, 578.68,323.66, 580.060,288.020z M 546.44,408.3l-96.74,0 
			c-10.98,56.12-27.64,96-41.82,121.8C 467.22,507.020, 515.92,463.4, 546.44,408.3z M 321.26,548.22c 21.34-0.94, 42.040-4.32, 61.84-9.86
			c 15.020-25.26, 34.4-67.44, 46.62-130.060l-108.46,0 L 321.26,548.22 z M 321.26,388.26l 111.74,0 c 4.68-29.38, 7.84-62.52, 8.34-100.24l-120.080,0 L 321.26,388.26 z
			 M 321.26,267.98l 119.96,0 c-0.46-37.86-3.74-70.86-8.42-100.24l-111.54,0 L 321.26,267.98 z M 321.26,8.18l0,139.54 l 108.040,0 
			c-12.34-63.040-31.82-105.42-46.86-130.24C 362.88,12.040, 342.34,9.12, 321.26,8.18z M 407.34,25.72
			c 14.28,25.52, 31.2,65.32, 42.24,122l 96.7,0 C 515.84,92.4, 466.94,48.72, 407.34,25.72z M 555.9,167.74l-103.040,0 
			c 4.68,29.42, 7.96,62.38, 8.46,100.24l 118.54,0 C 578.52,232.24, 569.7,198.62, 555.9,167.74z" />
<glyph unicode="&#xe057;" d="M 546.275,514.274 C 606.714,453.834 640,373.474 640,287.999 C 640,202.524 606.714,122.165 546.275,61.725 C 485.834,1.286 405.475-32 320-32 C 234.525-32 154.166,1.286 93.725,61.725 C 33.286,122.165 0,202.524 0,287.999 C 0,373.474 33.284,453.834 93.725,514.274 C 154.166,574.714 234.525,608 320,608 C 405.475,608 485.834,574.714 546.275,514.274 Z M 517.99,90.009 C 557.401,129.421 583.606,178.514 594.41,231.922 C 585.989,219.525 577.934,214.926 572.945,242.676 C 567.808,287.92 526.253,259.019 500.123,275.089 C 472.62,256.553 410.806,311.127 421.311,249.574 C 437.52,221.81 508.816,286.73 473.279,227.985 C 450.607,186.975 390.378,96.152 398.212,49.074 C 399.201-19.516 328.129,34.771 303.641,57.524 C 287.169,103.099 298.027,182.757 254.955,205.077 C 208.204,207.108 168.077,211.356 149.959,263.621 C 139.055,301.014 161.561,356.68 201.633,365.274 C 260.289,402.127 281.241,322.115 336.251,320.627 C 353.331,338.499 399.886,344.181 403.746,364.221 C 367.653,370.59 449.539,394.57 400.291,408.21 C 373.123,405.015 355.618,380.039 370.061,358.861 C 317.413,346.585 315.726,435.051 265.118,407.148 C 263.831,363.029 182.479,392.844 236.97,401.79 C 255.692,409.97 206.432,433.675 233.045,429.368 C 246.118,430.078 290.127,445.5 278.218,455.869 C 302.724,471.081 323.317,419.437 347.304,457.045 C 364.621,485.961 340.041,491.3 318.335,476.643 C 306.097,490.345 339.941,519.94 369.793,532.729 C 379.741,536.991 389.244,539.314 396.509,538.656 C 411.545,521.286 439.353,518.277 440.808,540.745 C 403.569,558.579 362.51,568 320,568 C 258.986,568 200.956,548.61 152.933,512.756 C 165.839,506.844 173.165,499.483 160.731,490.071 C 151.071,461.287 111.875,422.649 77.466,428.119 C 59.6,397.309 47.834,363.365 42.804,327.789 C 71.624,318.254 78.269,299.382 72.076,293.070 C 57.391,280.265 48.366,262.114 43.716,242.244 C 53.098,184.846 80.074,131.946 122.010,90.009 C 174.895,37.125 245.209,8 320,8 C 394.79,8 465.105,37.125 517.99,90.009 Z" />
<glyph unicode="&#xe01a;" d="M 757.199,26.507c0,0,0-58.109-58.109-58.109s-359.234,0-406.769,0c-58.109,0-58.109,58.109-58.109,58.109s-30.885,222.793, 164.13,278.171
	C 369.113,336.58, 350.43,382.139, 350.43,433.275c0,96.258, 65.053,174.329, 145.274,174.329s 145.274-78.070, 145.274-174.329c0-51.136-18.741-96.695-47.939-128.597
	C 788.085,249.3, 757.199,26.507, 757.199,26.507z M 495.705,549.495c0,0-87.165,0-87.165-116.22s 87.165-116.22, 87.165-116.22s 87.165,0, 87.165,116.22S 495.705,549.495, 495.705,549.495z M 495.705,258.946c-232.44,0-203.384-232.44-203.384-232.44l 406.769,0 
	C 699.090,26.507, 728.144,258.946, 495.705,258.946z M 258.907,248.69C 250.191,237.736, 242.724,225.91, 235.927,213.62c-16.533,6.654-36.231,10.983-60.725,10.983
	c-154.688,0-135.367-158.495-135.367-158.495l 160.818,0 C 200.827,52.656, 202.193,39.436, 204.343,26.507c-68.336,0-145.825,0-164.508,0
	C 1.162,26.507, 1.162,66.109, 1.162,66.109s-20.717,155.037, 113.866,190.658c-17.346,21.704-28.329,52.385-28.329,86.699C 86.699,409.102, 126.33,462.33, 175.172,462.33
	s 88.472-53.227, 88.472-118.863c0-34.343-10.983-65.025-28.329-86.699C 243.799,254.529, 251.644,251.799, 258.907,248.69z M 175.172,422.699
	c0,0-51.659,0-51.659-79.232c0-79.261, 51.659-79.261, 51.659-79.261s 51.659,0, 51.659,79.261C 226.861,422.699, 175.172,422.699, 175.172,422.699z" horiz-adv-x="759" />
<glyph unicode="&#xe055;" d="M 320,608C 143.28,608,0,464.72,0,288c0-176.72, 143.28-320, 320-320c 176.72,0, 320,143.28, 320,320
	C 640,464.72, 496.72,608, 320,608z M 420,488c 38.68,0, 70-31.84, 70-71.080c0-39.28-31.32-106.68-70-106.68c-15.36,0-29.4,10.8-40.92,26.040
	C 391.96,359.84, 400,387.28, 400,408c0,24.16-10.92,45.6-27.88,60.28C 384.64,480.36, 401.36,488, 420,488z M 280,488c 44.16,0, 80-35.84, 80-80S 324.16,288, 280,288
	S 200,363.84, 200,408S 235.84,488, 280,488z M 440,168c0-22.12-17.88-40-40-40L 160,128 c-22.12,0-40,17.88-40,40l0,40 c0,47.080, 36.52,67.4, 89.16,75.32
	C 228.36,262.28, 252.36,248, 280,248c 27.36,0, 51.16,13.92, 70.24,34.56l 29.48-5.52C 416.28,266.28, 440,245.84, 440,208L 440,168 z M 525,168L 480,168 l0,40 
	c0,36-21.32,56.4-54.92,67.52c 16.4,2.24, 36.44,14.4, 54.44,30.96C 526.96,299.72, 560,281.76, 560,239.080l0-35.56 
	C 560,183.92, 544.32,168, 525,168z" />
<glyph unicode="&#xf0f0;" d="M 136.714,128q0-9.286 -6.786-16.071t-16.071-6.786t-16.071,6.786t-6.786,16.071t 6.786,16.071t 16.071,6.786t 16.071-6.786t 6.786-16.071zM 502.428,106.214q0-43.214 -26.071-67.857t-69.286-24.643l-312.143,0 q-43.214,0 -69.286,24.643t-26.071,67.857q0,24.286 1.964,46.786t 8.571,49.286t 16.964,47.321t 28.929,36.786t 42.857,21.607q-7.857-18.571 -7.857-42.857l0-72.5 q-20.714-7.143 -33.214-25t-12.5-39.643q0-28.571 20-48.571t 48.571-20 t 48.571,20t 20,48.571q0,21.786 -12.679,39.643t-33.036,25l0,72.5 q0,22.143 8.929,33.214q 47.143-37.143 105.357-37.143t 105.357,37.143q 8.929-11.071 8.929-33.214l0-22.857 q-37.857,0 -64.643-26.786t-26.786-64.643l0-31.786 q-11.429-10.357 -11.429-25.357q0-14.286 10-24.286t 24.286-10t 24.286,10t 10,24.286q0,15 -11.429,25.357l0,31.786 q0,18.571 13.571,32.143t 32.143,13.571t 32.143-13.571t 13.571-32.143l0-31.786 q-11.429-10.357 -11.429-25.357q0-14.286 10-24.286 t 24.286-10t 24.286,10t 10,24.286q0,15 -11.429,25.357l0,31.786 q0,24.286 -12.321,45.536t-33.393,33.393q0,3.571 0.179,15.179t0,17.143t-0.893,14.821t-2.5,16.786t-4.643,14.286q 24.286-5.357 42.857-21.607t 28.929-36.786t 16.964-47.321t 8.571-49.286t 1.964-46.786zM 388.143,425.143q0-56.786 -40.179-96.964t-96.964-40.179t-96.964,40.179t-40.179,96.964t 40.179,96.964t 96.964,40.179 t 96.964-40.179t 40.179-96.964z" horiz-adv-x="502" />
<glyph unicode="&#xf10c;" d="M 600-32L 40-32 c-22.090,0-40,17.89-40,40L0,568 C0,590.11, 17.91,608, 40,608l 400,0 l-80-80L 80,528 
	l0-480 l 480,0 L 560,328 l 80,80l0-400 C 640-14.11, 622.090-32, 600-32z M 160,128l0,120 L 520,608l 40,0 l 80-80l0-40 L 280,128L 160,128 z M 340,268L 560,488l-40,40
	L 300,308L 340,268z M 240,248l-40-40l0-40 l 40,0 l 40,40L 240,248z" />
<glyph unicode="&#xe023;" d="M 512,320L 128,320 c-17.664,0-32-14.336-32-32s 14.336-32, 32-32l 384,0 c 17.696,0, 32,14.336, 32,32S 529.696,320, 512,320z M 128,384l 384,0 c 17.696,0, 32,14.336, 32,32
		s-14.304,32-32,32L 128,448 C 110.336,448, 96,433.664, 96,416S 110.336,384, 128,384z M 512,192L 128,192 c-17.664,0-32-14.304-32-32s 14.336-32, 32-32l 384,0 c 17.696,0, 32,14.304, 32,32
		S 529.696,192, 512,192z" />
<glyph unicode="&#xe02b;" d="M 236.8,480L 179.2,480 C 144,480, 128,464, 128,428.8l0-57.6 C 128,336, 144,320, 179.2,320l 57.6,0 C 272,320, 288,336, 288,371.2L 288,428.8 C 288,464, 272,480, 236.8,480z M 460.8,480L 403.2,480 
		C 368,480, 352,464, 352,428.8l0-57.6 C 352,336, 368,320, 403.2,320L 460.8,320 C 496,320, 512,336, 512,371.2L 512,428.8 C 512,464, 496,480, 460.8,480z M 236.8,256L 179.2,256 
		C 144,256, 128,240, 128,204.8L 128,147.2 C 128,112, 144,96, 179.2,96l 57.6,0 C 272,96, 288,112, 288,147.2L 288,204.8 C 288,240, 272,256, 236.8,256z M 460.8,256L 403.2,256 
		c-35.2,0-51.2-16-51.2-51.2L 352,147.2 c0-35.2, 16-51.2, 51.2-51.2L 460.8,96 c 35.2,0, 51.2,16, 51.2,51.2L 512,204.8 C 512,240, 496,256, 460.8,256z" />
<glyph unicode="&#xe030;" d="M 600,608L 280,608 c-22.11,0-40-17.89-40-40l0-320 c0-22.11, 17.89-40, 40-40l 320,0 
			c 22.11,0, 40,17.89, 40,40L 640,568 C 640,590.11, 622.11,608, 600,608z M 560,288L 320,288 L 320,528 l 240,0 L 560,288 z M 320,48L 80,48 L 80,288 l 80,0 l0,80 L 40,368 
			c-22.11,0-40-17.89-40-40l0-320 c0-22.11, 17.89-40, 40-40l 320,0 c 22.11,0, 40,17.89, 40,40l0,120 l-80,0 L 320,48 z" />
<glyph unicode="&#xe020;" d="M 320,608 C 145.782,608 4.089,468.774 0.095,295.516 C 3.795,446.681 118.74,568 260,568 C 403.594,568 520,442.64 520,288 C 520,254.863 546.862,228 580,228 C 613.138,228 640,254.863 640,288 C 640,464.731 496.731,608 320,608 ZM 320-32 C 494.218-32 635.911,107.226 639.905,280.484 C 636.205,129.319 521.26,8 380,8 C 236.406,8 120,133.36 120,288 C 120,321.137 93.138,348 60,348 C 26.862,348 0,321.137 0,288 C 0,111.269 143.269-32 320-32 Z" />
<glyph unicode="&#xe04e;" d="M 541.818,317.091L 349.091,317.091 L 349.091,509.818 l 55.738-55.738l 203.142,121.891l-121.891-203.171L 541.818,317.091z M 134.865,473.135
	c-77.644-77.644-96.175-191.913-55.855-287.215l-33.775-61.324c-73.135,122.851-57.222,283.985, 48.495,389.702s 266.851,121.629, 389.673,48.495l-61.295-33.775
	C 326.778,569.309, 212.538,550.807, 134.865,473.135z M 98.182,258.909L 290.909,258.909 l0-192.727 l-55.738,55.738l-203.142-121.891l 121.891,203.142L 98.182,258.909z M 505.135,102.895
	c 77.993,77.964, 96.291,192.815, 55.302,288.349l 33.833,60.975c 73.687-122.938, 57.92-284.567-48-390.487c-105.978-105.949-267.549-121.716-390.487-48
	l 60.975,33.833C 312.262,6.575, 427.171,24.873, 505.135,102.895z" />
<glyph unicode="&#xe021;" d="M 120,288c0,7.612, 0.44,15.123, 1.269,22.514l-115.612,37.565C 1.959,328.616,0,308.539,0,288
			c0-92.019, 38.854-174.951, 101.034-233.328l 71.428,98.31C 139.884,188.561, 120,235.956, 120,288zM 520,288c0-52.043-19.883-99.439-52.461-135.017l 71.428-98.31C 601.146,113.049, 640,195.981, 640,288
			c0,20.539-1.958,40.616-5.655,60.079l-115.612-37.565C 519.56,303.121, 520,295.613, 520,288zM 360,483.995c 57.459-11.664, 105.965-47.964, 134.031-97.391l 115.611,37.564C 563.895,521.305, 470.743,591.705, 360,605.515L 360,483.995 zM 145.969,386.605c 28.066,49.428, 76.573,85.727, 134.031,97.391L 280,605.515 C 169.257,591.705, 76.106,521.305, 30.359,424.169
			L 145.969,386.605zM 402.848,105.92C 377.604,94.415, 349.553,88, 320,88s-57.604,6.415-82.846,17.919l-71.433-98.319
			C 211.475-17.629, 264.056-32, 320-32s 108.525,14.371, 154.28,39.6L 402.848,105.92z" />
<glyph unicode="&#xe022;" d="M 440,361.588 L 212.215,589.373 C 245.896,601.42 282.178,608 320,608 C 362.44,608 402.94,599.719 440,584.715 L 440,361.588 ZM 480,168 L 480,565.179 C 575.646,509.849 640,406.442 640,288 C 640,245.56 631.719,205.060 616.715,168 L 480,168 ZM 200,128 L 597.179,128 C 541.849,32.354 438.442-32 320-32 C 277.56-32 237.060-23.719 200-8.715 L 200,128 ZM 266.413,468 L 9.361,210.949 C 3.259,235.63 0,261.433 0,288 C 0,408.864 67.016,514.064 165.907,568.505 L 266.413,468 ZM 160,294.413 L 160,10.821 C 100.877,45.023 53.727,97.601 26.329,160.741 L 160,294.413 Z" />
<glyph unicode="&#xe024;" d="M 40,248 L 280,248 L 280,8 L 193.588,94.413 L 67.337-31.837 L 0.163,35.337 L 126.412,161.587 ZM 513.587,161.587 L 639.837,35.337 L 572.663-31.837 L 446.413,94.413 L 360,8 L 360,248 L 600,248 ZM 600,328 L 360,328 L 360,568 L 446.413,481.588 L 572.663,607.837 L 639.837,540.663 L 513.587,414.412 ZM 193.588,481.588 L 280,568 L 280,328 L 40,328 L 126.412,414.412 L 0.163,540.663 L 67.337,607.837 Z" />
<glyph unicode="&#x20;" horiz-adv-x="320" />
<glyph class="hidden" unicode="&#xf001;" d="M0,608L 640 -32L0 -32 z" horiz-adv-x="0" />
</font>
</defs>
</svg>
